Welcome Guest ( Log In | Register )

> Pit Of Doom - Despairity (2021), Modern Melodic Death/Thrash Metal
post Jan 21 2021, 10:57:44
Post #1

Правь статус, ####!111
**************
Group: Металариец
Posts: 35,117
Releases: 26118
From: Г.Харьков
On Forums: 11 years 9 months
Thanks: 562154 time(s)
Ukraine


(IMG:http://metalarea.org/images/audiocovers/2021_Jan/acov_tid346317_thumb.jpg)

*Artist: Pit Of Doom
*Album: Despairity
*Year: 2021
*Genre: Modern Melodic Death/Thrash Metal
*Country: Germany (IMG:http://metalarea.org/forum/style_images/flags/Germany.png)
*Format: mp3@CBR320kbps
*Size: 132MB

Tracklist:
1. Too Command
2. Constructors
3. Binary Afterlife
4. The Hollow, The Lost
5. Hate
6. The Beloved
7. Walk The Walk
8. Windmills
9. Collapse
10. Levity
11. When Light Becomes The Demon
******************************
Total playing time: 51:22




Extended info
Katharina Guthoff Bass (2001-present)
Fabian Guthoff Vocals, Drums (2001-present)
Lukas Ullrich Guitars (2009-present)


Technical info
(IMG:http://metalarea.org/images/spectrogram/2021_Jan/571b55d5922a0430fb5ae851d64d8448.png)
Input File: 07 - Walk The Walk.mp3
Channels : 2
Sample Rate : 44100
Precision : 16-bit
Duration : 00:06:02.16 = 15971036 samples = 27161.6 CDDA sectors
File Size : 14.6M
Bit Rate : 323k
Sample Encoding: MPEG audio (layer I, II or III)
Comments :
Title=Walk The Walk
Artist=Pit Of Doom
Album=Despairity
Tracknumber=7
Year=2021



Register


Go to the top of the page
  Insert nick Quick quote
+Quote Post
 
Start new topic
Replies (1 - 4)
post Jan 22 2021, 11:53:00
Post #2

Маньяк
**********
Group: Металариец
Posts: 1,121
Releases: 4
From: Харьков
On Forums: 15 years 6 months
Thanks: 416 time(s)
Ukraine


Нету тута ни дэта, ни трэша.
Пригрувованный модерн метал


Thanks:
Go to the top of the page
  Insert nick Quick quote
+Quote Post
post Jan 22 2021, 19:06:08
Post #3

MDM-Thrash Metal
**************
Group: Металариец
Posts: 12,269
Releases: 1716
From: Одесса
On Forums: 16 years 6 months
Thanks: 39952 time(s)
Ukraine


И на выходе хрень полнейшая.
Go to the top of the page
  Insert nick Quick quote
+Quote Post
post Jan 25 2021, 11:58:04
Post #4

Ъ
**************
Group: Металариец
Posts: 11,214
Releases: 9
On Forums: 15 years 1 month
Thanks: 2274 time(s)
Sweden


Третьесорт.
Go to the top of the page
  Insert nick Quick quote
+Quote Post
post Jan 25 2021, 12:00:48
Post #5

Ледоруб
**************
Group: Металариец
Posts: 33,382
Releases: 0
From: Санкт-Петербург
On Forums: 14 years 5 months
Thanks: 11690 time(s)
Russian Federation


ЦИТАТА(DenisKov @ 25th January 2021 - 13:58:04) *
Третьесорт.

Ты ошибаешься.
Go to the top of the page
  Insert nick Quick quote
+Quote Post

Reply to this topicStart new topic
2 User(s) are reading this topic (2 Guests and 0 Anonymous Users)
0 Members:

 



- Lo-Fi Version Support form
Copyrights and abuse reports form
Time is now: 3rd March 2024 - 07:06:00