Welcome Guest ( Log In | Register )

> Ektomorf - Reborn (2021), Groove/Thrash Metal (D)
post Jan 21 2021, 11:19:28
Post #1

Правь статус, ####!111
**************
Group: Металариец
Posts: 26,375
Releases: 18969
From: Г.Харьков
On Forums: 9 years 1 month
Thanks: 378690 time(s)
Unknown


(IMG:http://metalarea.org/images/audiocovers/2021_Jan/acov_tid346319_thumb.jpg)

*Artist: Ektomorf
*Album: Reborn
*Year: 2021
*Genre: Groove/Thrash Metal
*Country: Hungary (IMG:http://metalarea.org/forum/style_images/flags/Hungary.png)
*Format: mp3@CBR320kbps
*Size: 85MB

Tracklist:
01. Ebullition 03:56
02. Reborn 04:31
03. And the Dead Will Walk 04:11
04. Fear Me 03:59
05. Where the Hate Conceives 05:28
06. The Worst is yet to Come 04:51
07. Forsaken 07:09
08. Smashing the Past 03:10
******************************
Total playing time: 37:15



Extended info
Szabolcs Murvai - Bass
Tamás Schrottner - Guitar
Gergely Tarin - Drums
Farkas Zoltán - Vocals, Guitar



Technical info
(IMG:http://metalarea.org/images/spectrogram/2021_Jan/d556c894df416232d5c9bb7b0698c1ea.png)
Input File: 07 Forsaken.mp3
Channels : 2
Sample Rate : 44100
Precision : 16-bit
Duration : 00:07:09.50 = 18941038 samples = 32212.6 CDDA sectors
File Size : 17.2M
Bit Rate : 320k
Sample Encoding: MPEG audio (layer I, II or III)
Comments :
Title=Forsaken
Artist=Ektomorf
Album=Reborn
Tracknumber=07/08
Year=2021-21-20
Discnumber=1/1



Register


Go to the top of the page
  Insert nick Quick quote
+Quote Post
 
Start new topic
Replies (1 - 9)
post Jan 21 2021, 12:45:21
Post #2

Правь статус, ####!111
**************
Group: Металариец
Posts: 48,888
Releases: 834
On Forums: 12 years 3 weeks
Thanks: 43669 time(s)
Russian Federation


После их прошлой скушнейше-банальной трэшевой тарахтелки слушать это вымученное нет никакого желания.

Go to the top of the page
  Insert nick Quick quote
+Quote Post
post Jan 21 2021, 12:46:49
Post #3

\m/
Group Icon
Group: S-moderation team
Posts: 7,932
Releases: 19
From: Петропавловск-Камчатский
On Forums: 12 years 1 week
Thanks: 7984 time(s)
Russian Federation


Кому как. По мне прошлый мощнейший драйвовый альбом! Надеюсь и здесь не подвели.


Go to the top of the page
  Insert nick Quick quote
+Quote Post
post Jan 21 2021, 12:49:57
Post #4

Правь статус, ####!111
**************
Group: Металариец
Posts: 48,888
Releases: 834
On Forums: 12 years 3 weeks
Thanks: 43669 time(s)
Russian Federation


Буду искренне рад за тебя, если понравится. Лично для меня они подрастеряли свой фирменный кач и угар.
Go to the top of the page
  Insert nick Quick quote
+Quote Post
Living_Beat
post Jan 21 2021, 12:53:52
Post #5

Guests team






чорт на аблошке такой тип а сиськи маленьки и глаза загарелись
Go to the top of the page
  Insert nick Quick quote
+Quote Post
post Jan 22 2021, 06:45:33
Post #6

Group: Подсевший
Posts: 19
Releases: 0
On Forums: 12 years 6 months
Thanks: 6 time(s)
Russian Federation


Во всех последних клипах (и если посмотреть его Инстаграм) Золтан всегда майке Металлики. И после прослушивания альбома стало понятно, что не просто так)) Например, Where the Hate Conceives это, по сути, Battery, адаптированная под Эктоморф. Да и вообще чувствуется влияние. Тот же "лирический" проигрыш в Reborn - трудно не вспомнить Master of Puppets) Но лично мне это не по душе. Скучаю по временам Destroy, Instinct и Outcast.


Go to the top of the page
  Insert nick Quick quote
+Quote Post
post Jan 22 2021, 11:21:10
Post #7

Ъ
**************
Group: Металариец
Posts: 10,650
Releases: 9
On Forums: 12 years 5 months
Thanks: 2170 time(s)
Sweden


Осилил пол альбома, вместо кача, какое то уныние...реально спать потянуло.
Go to the top of the page
  Insert nick Quick quote
+Quote Post
post Jan 27 2021, 16:10:22
Post #8

Ёлд ХеллоВяйне
Group Icon
Group: V.I.P
Posts: 31,721
Releases: 144
From: Питер
On Forums: 14 years 7 months
Thanks: 19805 time(s)
Russian Federation


QUOTE(DenisKov @ 22nd January 2021 - 13:21:10) *
вместо кача, какое то уныние


Как будто хоть когда-то было не так.
Go to the top of the page
  Insert nick Quick quote
+Quote Post
post Feb 4 2021, 16:10:07
Post #9

Пять Литров
*****
Group: Металариец
Posts: 490
Releases: 0
On Forums: 14 years 5 months
Thanks: 64 time(s)
Russian Federation


В Фурии хоть что то можно было послушать, а тут.... Вырубил на 6 треке.
Go to the top of the page
  Insert nick Quick quote
+Quote Post
post Feb 5 2021, 14:01:27
Post #10

Шесть Литров
******
Group: Металариец
Posts: 549
Releases: 0
From: Лыткарино
On Forums: 2 years 1 month
Thanks: 139 time(s)
Russian Federation


В принципе, вполне даже ничего, мне вымученным не показался, довольно живой, драйвовый альбом.
Go to the top of the page
  Insert nick Quick quote
+Quote Post

Reply to this topicStart new topic
2 User(s) are reading this topic (2 Guests and 0 Anonymous Users)
0 Members:

 



- Lo-Fi Version Support form
Copyrights and abuse reports form
Time is now: 25th June 2021 - 11:00:18