Welcome Guest ( Log In | Register )

> Tidal Fall - Tidal Fall [ep] (2021), Melodic Death Metal
post Jan 21 2021, 20:36:46
Post #1

Правь статус, ####!111
**************
Group: Металариец
Posts: 27,349
Releases: 19845
From: Г.Харьков
On Forums: 9 years 4 months
Thanks: 399170 time(s)
Unknown


(IMG:http://metalarea.org/images/audiocovers/2021_Jan/acov_tid346354_thumb.jpg)

*Artist: Tidal Fall
*Album: Tidal Fall [ep]
*Year: 2021
*Genre: Melodic Death Metal
*Country: United Kingdom (IMG:http://metalarea.org/forum/style_images/flags/United%20Kingdom.png)
*Format: mp3@CBR320kbps
*Size: 59MB

Tracklist:
1. As the Crow Flies 01:10
2. Redemption 03:42
3. Carved in a Bullet 04:11
4. Barren Heart 03:49
5. Shores of Reflection 04:14
6. Letter to the Mutineer 03:41
7. When the Last Ship Has Sailed 02:17
******************************
Total playing time: 23:04


(IMG:http://metalarea.org/images/youtube.png)

Technical info
(IMG:http://metalarea.org/images/spectrogram/2021_Jan/6b6e1896d28b61bf31ec059821ced8fd.png)
Input File: 05 Shores of Reflection.mp3
Channels : 2
Sample Rate : 44100
Precision : 16-bit
Duration : 00:04:14.63 = 11229139 samples = 19097.2 CDDA sectors
File Size : 11.0M
Bit Rate : 344k
Sample Encoding: MPEG audio (layer I, II or III)
Comments :
Title=Shores of Reflection
Artist=Tidal Fall
Album=Tidal Fall
Tracknumber=5/7
Year=2021-21-20
Genre=Metal
Discnumber=1/1



Register


Go to the top of the page
  Insert nick Quick quote
+Quote Post
 
Start new topic
Replies (1 - 6)
post Jan 22 2021, 10:53:47
Post #2

hearer & reader
**************
Group: Металариец
Posts: 9,867
Releases: 173
From: Moscow
On Forums: 14 years 1 week
Thanks: 11178 time(s)
Russian Federation


Chathai Khammol (Guitarist/Songwriter) указал на FB, что он/они из Новой Англии
Впрочем, хрен его знает.

2. Redemption (feat. Tom Englund & Mike Abdow):


И кусочки тут - https://distrokid.com/hyperfollow/tidalfall/tidal-fall
Go to the top of the page
  Insert nick Quick quote
+Quote Post
post Jan 22 2021, 13:42:01
Post #3

Шесть Литров
******
Group: Металариец
Posts: 556
Releases: 0
From: Москва
On Forums: 14 years 10 months
Thanks: 122 time(s)
Russian Federation


Скорее модерн с чистоголосьем, больше одного раза слушать желания не возникло.


Thanks:
Go to the top of the page
  Insert nick Quick quote
+Quote Post
post Jan 22 2021, 17:16:25
Post #4

MDM-Thrash Metal
**************
Group: Металариец
Posts: 10,587
Releases: 1309
From: Одесса
On Forums: 14 years 1 month
Thanks: 31654 time(s)
Ukraine


ЦИТАТА(Сварог Барг @ Jan 22 2021, 16:42:01) *
Скорее модерн с чистоголосьем, больше одного раза слушать желания не возникло.

К сожалению, но так все и есть. Больше двух треков не осилить...


Go to the top of the page
  Insert nick Quick quote
+Quote Post
post Jan 22 2021, 17:52:38
Post #5

Тридцать лет на борту "Тяжёлого" крейсера
**************
Group: Металариец
Posts: 2,676
Releases: 0
From: Питер
On Forums: 14 years 3 months
Thanks: 842 time(s)
Russian Federation


все эти заигрывания с чистым вокалом (типа, модные растакие все) до добра не довели никого, и альттрушная туса не ведется на такой материал особо, и мИталлисты хают
хотя всё просто: ну, хотят парни быть в топе, думают, что у них-то выстрелит...а вот хрен по всей морде
но ценители найдутся
Go to the top of the page
  Insert nick Quick quote
+Quote Post
post Jan 22 2021, 18:52:44
Post #6

Литр
*
Group: Подсевший
Posts: 86
Releases: 0
On Forums: 11 years 3 months
Thanks: 20 time(s)
Unknown


Melodic Metalcore
Go to the top of the page
  Insert nick Quick quote
+Quote Post
post Jan 26 2021, 07:29:36
Post #7

Ъ
**************
Group: Металариец
Posts: 10,729
Releases: 9
On Forums: 12 years 8 months
Thanks: 2185 time(s)
Sweden


Третьесортный KSE.
Go to the top of the page
  Insert nick Quick quote
+Quote Post

Reply to this topicStart new topic
1 User(s) are reading this topic (1 Guests and 0 Anonymous Users)
0 Members:

 



- Lo-Fi Version Support form
Copyrights and abuse reports form
Time is now: 17th September 2021 - 14:28:17