Welcome Guest ( Log In | Register )

> Kharon - Kharon [ep] (2021), Melodic Black Metal
post Jan 22 2021, 00:10:29
Post #1

Правь статус, ####!111
**************
Group: Металариец
Posts: 26,728
Releases: 19290
From: Г.Харьков
On Forums: 9 years 2 months
Thanks: 386125 time(s)
Unknown


(IMG:http://metalarea.org/images/audiocovers/2021_Jan/acov_tid346360_thumb.jpg)

*Artist: Kharon
*Album: Kharon [ep]
*Year: 2021
*Genre: Melodic Black Metal
*Country: Greece (IMG:http://metalarea.org/forum/style_images/flags/Greece.png)
*Format: mp3@CBR320kbps
*Size: 54MB

Tracklist:
1. Scowling Dissonance (A Prelude to Suffering) 01:31 instrumental
2. The Great Sacrifice (The Price of Salvation) 05:01
3. Tribulation (A Purposeless Dream) 06:28
4. Cult of Six Rivers 04:40
5. Nyx (Night) 06:18
******************************
Total playing time: 23:58



Extended info
Kratz Everything (2020-present)


Technical info
(IMG:http://metalarea.org/images/spectrogram/2021_Jan/8da4452735081ab8365ceba2c8ca3e04.png)
Input File: 03 - Tribulation (A Purposeless Dream).mp3
Channels : 2
Sample Rate : 44100
Precision : 16-bit
Duration : 00:06:28.53 = 17134305 samples = 29140 CDDA sectors
File Size : 15.5M
Bit Rate : 320k
Sample Encoding: MPEG audio (layer I, II or III)
Comments :
Title=Tribulation (A Purposeless Dream)
Artist=Kharon
Album=Kharon
Tracknumber=3
Year=2021
Genre=Black Metal



Register


Go to the top of the page
  Insert nick Quick quote
+Quote Post
 
Start new topic
Replies (1 - 6)
post Jan 22 2021, 09:10:08
Post #2

Правь статус, ####!111
**************
Group: Металариец
Posts: 5,001
Releases: 441
From: MoscoW
On Forums: 14 years 7 months
Thanks: 7254 time(s)
Russian Federation


Это же mCD?
Metal-Archives.com
Go to the top of the page
  Insert nick Quick quote
+Quote Post
post Jan 22 2021, 11:49:23
Post #3

Group: Дух
Posts: 1
Releases: 0
On Forums: 6 months 1 week
Thanks: 0 time(s)
Unknown


QUOTE(satanist666 @ Jan 22 2021, 10:10:08) *
Это же mCD?
Metal-Archives.com


I think the physical copy will be out within the next few weeks
Go to the top of the page
  Insert nick Quick quote
+Quote Post
post Jan 22 2021, 13:06:09
Post #4

Шесть Литров
******
Group: Металариец
Posts: 501
Releases: 0
From: Москва
On Forums: 14 years 9 months
Thanks: 111 time(s)
Russian Federation


Мелодик тут относительный, на мой взгляд - обычная среднетемповая долба, не запоминающаяся ничем.


Thanks:
Go to the top of the page
  Insert nick Quick quote
+Quote Post
post Jan 22 2021, 17:10:52
Post #5

MDM-Thrash Metal
**************
Group: Металариец
Posts: 10,496
Releases: 1268
From: Одесса
On Forums: 13 years 11 months
Thanks: 30828 time(s)
Ukraine


Чет вообще ни о чем! Особенно ударные - это примитивизм высшей степени!


Thanks:
Go to the top of the page
  Insert nick Quick quote
+Quote Post
post Jan 25 2021, 18:14:54
Post #6
BAN
Banned till
Aug 7 2021, 20:30:25



ЦИТАТА(Andrew @ Jan 22 2021, 19:10:52) *
это примитивизм высшей степени!
Да ты офигел? Топовый EP!
Мелодика, в понимании грейвворм или кик оф классин, я тут не услышал, оно и не надо, зато прекрасные атмосферные барабаны и приятный гроул (в блэковском варианте).
Go to the top of the page
  Insert nick Quick quote
+Quote Post
post Feb 9 2021, 11:54:12
Post #7

добрый мизантроп
**************
Group: Металариец
Posts: 2,286
Releases: 1
From: Минск
On Forums: 10 years 8 months
Thanks: 1059 time(s)
Madagascar


По музыке на основе шедевра Finngálkn - Tyranny From Beyond The Styx [demo] (2006) , и потому не плох.
Но с большим добавлением депрессива и дума. Мелодика тут нет, просто адекватный уровень композиции, поэтому с тэгами не согласен - АБМ больше подходит.
Go to the top of the page
  Insert nick Quick quote
+Quote Post

Reply to this topicStart new topic
2 User(s) are reading this topic (2 Guests and 0 Anonymous Users)
0 Members:

 



- Lo-Fi Version Support form
Copyrights and abuse reports form
Time is now: 1st August 2021 - 11:12:15