Welcome Guest ( Log In | Register )

 
Reply to this topicStart new topic
> Drudensang - Rauhnachtszeremonie [live] (2020), Black Metal (D4)
post Jan 23 2021, 18:38:34
Post #1

Правь статус, ####!111
**************
Group: Металариец
Posts: 4,800
Releases: 1472
From: Brazil
On Forums: 9 years 4 months
Thanks: 55046 time(s)
Brazil


(IMG:http://metalarea.org/images/audiocovers/2021_Jan/acov_tid346415_thumb.jpg)

*Artist: Drudensang
*Album: Rauhnachtszeremonie [live]
*Year: 2020
*Genre: Black Metal
*Country: Germany (IMG:http://metalarea.org/forum/style_images/flags/Germany.png)
*Format: mp3@CBR320kbps
*Size: 123MB

Tracklist:
1. Prolog - Fäulnis 07:53
2. Metamorphose 04:11
3. Sterbelicht 07:19
4. Todesstoß 05:33
5. Parasit 06:10
6. Todgeweiht 09:02
7. Geistes Fluch 05:04
8. Watzmannsage - Epilog 07:55
******************************
Total playing time: 53:07

(IMG:http://metalarea.org/images/youtube.png)
(IMG:http://metalarea.org/images/youtube.png)

Extended info
Dominance of Darkness Records

Recorded live at Iron Eagle, Lugau in 2018.
Mixed and mastered at Soundtempel Studio.


Technical info
(IMG:http://metalarea.org/images/spectrogram/2021_Jan/dfaca3452b2164e530a2c43945ee336b.png)
Input File: 1. Prolog - Fäulnis.mp3
Channels : 2
Sample Rate : 44100
Precision : 16-bit
Duration : 00:07:53.10 = 20863842 samples = 35482.7 CDDA sectors
File Size : 19.0M
Bit Rate : 321k
Sample Encoding: MPEG audio (layer I, II or III)
Comments :
Title=Prolog - Fäulnis
Artist=Drudensang
Album=Rauhnachtszeremonie
Tracknumber=1
Year=2020



Register


Go to the top of the page
  Insert nick Quick quote
+Quote Post

Reply to this topicStart new topic
2 User(s) are reading this topic (2 Guests and 0 Anonymous Users)
0 Members:

 



- Lo-Fi Version Support form
Copyrights and abuse reports form
Time is now: 23rd June 2021 - 18:59:18