Welcome Guest ( Log In | Register )

 
Reply to this topicStart new topic
> Alpgeist - Bergteufel Und Waldgeister [ep] (2020), Atmospheric Black Metal
post Jan 23 2021, 18:43:59
Post #1

Правь статус, ####!111
**************
Group: Металариец
Posts: 4,800
Releases: 1472
From: Brazil
On Forums: 9 years 4 months
Thanks: 55046 time(s)
Brazil


(IMG:http://metalarea.org/images/audiocovers/2021_Jan/acov_tid346416_thumb.jpg)

*Artist: Alpgeist
*Album: Bergteufel Und Waldgeister [ep]
*Year: 2020
*Genre: Atmospheric Black Metal
*Country: Germany (IMG:http://metalarea.org/forum/style_images/flags/Germany.png)
*Format: mp3@CBR320kbps
*Size: 48MB

Tracklist:
1. Bergteufel und Waldgeister 20:30
******************************
Total playing time: 20:30

(IMG:http://metalarea.org/images/youtube.png)


Extended info
Dominance of Darkness Records


Technical info
(IMG:http://metalarea.org/images/spectrogram/2021_Jan/a5956c8567e934457d50ed0e6f1a939c.png)
Input File: 1. Bergteufel und Waldgeister.mp3
Channels : 2
Sample Rate : 44100
Precision : 16-bit
Duration : 00:20:30.12 = 54248380 samples = 92259.1 CDDA sectors
File Size : 49.6M
Bit Rate : 323k
Sample Encoding: MPEG audio (layer I, II or III)
Comments :
Title=Bergteufel und Waldgeister
Artist=Alpgeist
Album=Bergteufel und Waldgeister
Tracknumber=1
Year=2020



Register


Go to the top of the page
  Insert nick Quick quote
+Quote Post

Reply to this topicStart new topic
2 User(s) are reading this topic (2 Guests and 0 Anonymous Users)
0 Members:

 



- Lo-Fi Version Support form
Copyrights and abuse reports form
Time is now: 23rd June 2021 - 19:48:55