Welcome Guest ( Log In | Register )

> Grave Gnosis - Lux Nigredo (2021), Occult Black Metal
post Jan 24 2021, 06:25:29
Post #1

Правь статус, ####!111
**************
Group: Металариец
Posts: 26,313
Releases: 18927
From: Г.Харьков
On Forums: 9 years 1 month
Thanks: 377409 time(s)
Unknown


(IMG:http://metalarea.org/images/audiocovers/2021_Jan/acov_tid346440_thumb.jpg)

*Artist: Grave Gnosis
*Album: Lux Nigredo
*Year: 2021
*Genre: Occult Black Metal
*Country: United States (IMG:http://metalarea.org/forum/style_images/flags/United%20States.png)
*Format: mp3@CBR320kbps
*Size: 171MB

Tracklist:
1. Astovidat 09:37
2. Anathema 08:36
3. Necrosophia 11:40
4. Sokushinbutsu 10:11
5. Saturnian Majesty 07:47
6. Ho Drakon Ho Megas 08:48
7. Subverting the Life Force Current 05:40
8. Noctifer 02:29
9. Solipsist Dreams 10:16
******************************
Total playing time: 1:15:04




Extended info
Vikzaru Bass (2015-present)
See also: ex-Nahemoth
Caine Del Sol Guitars, Vocals (2015-present)
See also: ex-Nahemoth
Nova Keyboards (2015-present)
See also: ex-Nahemoth
Algid Drums (2018-present)
See also: Deathwalkers, Impurity, Nakhiel, Seraph in Travail, ex-Duskmourn, ex-Extremely Rotten


Technical info
(IMG:http://metalarea.org/images/spectrogram/2021_Jan/0c5ef74d5b2d7ceb09ab6ff25fe54d4a.png)
Input File: 06 - Ho Drakon Ho Megas.mp3
Channels : 2
Sample Rate : 44100
Precision : 16-bit
Duration : 00:08:48.03 = 23285991 samples = 39602 CDDA sectors
File Size : 21.1M
Bit Rate : 320k
Sample Encoding: MPEG audio (layer I, II or III)
Comments :
Title=Ho Drakon Ho Megas
Artist=Grave Gnosis
Album=Lux Nigredo
Tracknumber=6
Year=2021
Genre=Black Metal



Register


Go to the top of the page
  Insert nick Quick quote
+Quote Post
 
Start new topic
Replies (1 - 1)
post Apr 6 2021, 07:22:25
Post #2

Правь статус, ####!111
**************
Group: Металариец
Posts: 4,856
Releases: 373
From: MoscoW
On Forums: 14 years 6 months
Thanks: 6321 time(s)
Russian Federation


VARGHEIST Records:


PLATE XII Records:
Go to the top of the page
  Insert nick Quick quote
+Quote Post

Reply to this topicStart new topic
1 User(s) are reading this topic (1 Guests and 0 Anonymous Users)
0 Members:

 



- Lo-Fi Version Support form
Copyrights and abuse reports form
Time is now: 18th June 2021 - 00:54:27