Welcome Guest ( Log In | Register )

> И неформату есть предел.

Рэп/хип-хоп/шансон/поп удаляются. Для них есть свои порталы.

 
Reply to this topicStart new topic
> Mephisto Walz - All These Winding Roads (2020), Deathrock
post Jan 24 2021, 13:24:26
Post #1

Литр
*
Group: Подсевший
Posts: 98
Releases: 35
From: DONBASS
On Forums: 8 years 11 months
Thanks: 640 time(s)
Ukraine


(IMG:https://metalarea.org/images/audiocovers/2021_Jan/acov_tid346445_thumb.jpg)

*Artist: Mephisto Walz
*Album: All These Winding Roads
*Year: 2020
*Genre: Deathrock
*Country: United States (IMG:https://metalarea.org/forum/style_images/flags/United%20States.png)
*Format: mp3@CBR320kbps
*Size: 97MB

Tracklist:
1.The Lost And Haunted 04:17
2.They'll Never Find You 03:24
3.Stop In The Name Of Love 03:59
4.Is this Really My Life 04:28
5.Apache02:41
6.When No One's Left To Hear 04:01
7.Like The Wind 03:11
8.Here Lies Forever 02:31
9.Firefly 03:01
10.Skin 06:28
11.Suntanned Satans 03:40
******************************
Total playing time: 41:41



Extended info


Technical info
(IMG:https://metalarea.org/images/spectrogram/2021_Jan/cb16bdd1b9fe35753fe99335f1fd5b78.png)
Input File: 05 - Apache.mp3
Channels : 2
Sample Rate : 44100
Precision : 16-bit
Duration : 00:02:41.08 = 7103452 samples = 12080.7 CDDA sectors
File Size : 6.45M
Bit Rate : 320k
Sample Encoding: MPEG audio (layer I, II or III)
Comments :
Title=Apache
Artist=Mephisto Walz
Album=All These Winding Roads
Tracknumber=5
Year=2020



Register


Go to the top of the page
  Insert nick Quick quote
+Quote Post

Reply to this topicStart new topic
1 User(s) are reading this topic (1 Guests and 0 Anonymous Users)
0 Members:

 



- Lo-Fi Version Support form
Copyrights and abuse reports form
Time is now: 8th March 2021 - 03:29:12