Welcome Guest ( Log In | Register )

 
Reply to this topicStart new topic
> Exsedum Morcerin - Dwelling In The Unconsciousness (2017), Black Metal
post Jan 24 2021, 17:57:21
Post #1

Ретроград
**************
Group: Металариец
Posts: 5,275
Releases: 211
On Forums: 14 years 5 months
Thanks: 8664 time(s)
Vatican City


(IMG:http://metalarea.org/images/audiocovers/2021_Jan/acov_tid346459_thumb.jpg)

*Artist: Exsedum Morcerin
*Album: Dwelling In The Unconsciousness
*Year: 2017
*Genre: Black Metal
*Country: United States (IMG:http://metalarea.org/forum/style_images/flags/United%20States.png)
*Format: mp3@CBR320kbps
*Size: 71MB

Tracklist:
1. A Nords Psychotic Journey 05:45
2. False Stories of Elite Status 06:35
3. Bestowed Mystical Uprising 04:37
4. Dwelling in the Unconsciousness 08:34
5. Just Punishment from a Goddess 04:15
******************************
Total playing time: 29:46



Technical info
(IMG:http://metalarea.org/images/spectrogram/2021_Jan/139aed96ed4dd223d7778dfd907c82af.png)
Input File: Exsedum Morcerin - Dwelling In The Unconsciousness - 02 False Stories Of Elite Status.mp3
Channels : 2
Sample Rate : 44100
Precision : 16-bit
Duration : 00:06:36.04 = 17465276 samples = 29702.9 CDDA sectors
File Size : 15.9M
Bit Rate : 321k
Sample Encoding: MPEG audio (layer I, II or III)
Comments :
Title=False Stories Of Elite Status
Artist=Exsedum Morcerin
Album=Dwelling In The Unconsciousness
Tracknumber=2
Year=2017



Register


Go to the top of the page
  Insert nick Quick quote
+Quote Post

Reply to this topicStart new topic
1 User(s) are reading this topic (1 Guests and 0 Anonymous Users)
0 Members:

 



- Lo-Fi Version Support form
Copyrights and abuse reports form
Time is now: 9th December 2021 - 05:22:56