Welcome Guest ( Log In | Register )

 
Reply to this topicStart new topic
> Necroweasel - Isolated And Incompetent [ep] (2021), Crossover/Hardcore/Thrash Metal
post Jan 24 2021, 17:59:17
Post #1

Правь статус, ####!111
**************
Group: Металариец
Posts: 4,450
Releases: 4084
From: Одесса
On Forums: 13 years 6 months
Thanks: 45415 time(s)
Ukraine


(IMG:http://metalarea.org/images/audiocovers/2021_Jan/acov_tid346460_thumb.jpg)

*Artist: Necroweasel
*Album: Isolated And Incompetent [ep]
*Year: 2021
*Genre: Crossover/Hardcore/Thrash Metal
*Country: Finland (IMG:http://metalarea.org/forum/style_images/flags/Finland.png)
*Format: mp3@CBR320kbps
*Size: 61MB

Tracklist:
1. No Turning Back 04:54
2. Forever Lost 04:20
3. The Inescapable Death 04:24
4. Crying Mother Earth 03:16
5. Racist Scum 04:40
6. Isolated and Incompetent 04:11
******************************
Total playing time: 25:45



Extended info
Line - up:

East Bay Max - Drums
Necro Weasel - Vocals, Guitars, Bass


Technical info
(IMG:http://metalarea.org/images/spectrogram/2021_Jan/ebd3fe69c4885d2416c69307a883f53f.png)
Input File: 06. Isolated and incompetent.mp3
Channels : 2
Sample Rate : 44100
Precision : 16-bit
Duration : 00:04:11.21 = 11078361 samples = 18840.8 CDDA sectors
File Size : 10.1M
Bit Rate : 320k
Sample Encoding: MPEG audio (layer I, II or III)
Comments :
Title=Isolated and incompetent
Artist=Necroweasel
Album=Isolated and incompetent (EP)
Tracknumber=6
Year=2021
Genre=Crossover/Hardcore/Thrash Metal



Register


Go to the top of the page
  Insert nick Quick quote
+Quote Post

Reply to this topicStart new topic
1 User(s) are reading this topic (1 Guests and 0 Anonymous Users)
0 Members:

 



- Lo-Fi Version Support form
Copyrights and abuse reports form
Time is now: 9th December 2021 - 04:34:44