Welcome Guest ( Log In | Register )

 
Reply to this topicStart new topic
> Feorhwund - Feorhwund [ep] (2021), Black Metal
post Jan 26 2021, 20:48:25
Post #1

Ретроград
**************
Group: Металариец
Posts: 5,275
Releases: 211
On Forums: 14 years 5 months
Thanks: 8662 time(s)
Vatican City


(IMG:https://metalarea.org/images/audiocovers/2021_Jan/acov_tid346524_thumb.jpg)

*Artist: Feorhwund
*Album: Feorhwund [ep]
*Year: 2021
*Genre: Black Metal
*Country: United States (IMG:https://metalarea.org/forum/style_images/flags/United%20States.png)
*Format: mp3@CBR320kbps
*Size: 53MB

Tracklist:
1. Inwitspell 04:00
2. Dryhtenbealu I 04:49
3. Sinsorg 04:02
4. Dryhtenbealu II 06:41
******************************
Total playing time: 19:32



Technical info
(IMG:https://metalarea.org/images/spectrogram/2021_Jan/fd6383e1eee4f890fa470e7093db21cd.png)
Input File: Feorhwund - 2021 - Feorhwund (EP)_[metalarea.org]_by_Kazoth.rar
Channels : 2
Sample Rate : 44100
Precision : 16-bit
Duration : 00:19:38.31 = 51963515 samples = 88373.3 CDDA sectors
File Size : 55.9M
Bit Rate : 380k
Sample Encoding: MPEG audio (layer I, II or III)



Register


Go to the top of the page
  Insert nick Quick quote
+Quote Post

Reply to this topicStart new topic
2 User(s) are reading this topic (2 Guests and 0 Anonymous Users)
0 Members:

 



- Lo-Fi Version Support form
Copyrights and abuse reports form
Time is now: 5th December 2021 - 00:00:09