Welcome Guest ( Log In | Register )

 
Reply to this topicStart new topic
> Fugue Tomb - Shattered Identity [ep] (2021), Sludge/Doom Metal
post Jan 26 2021, 20:58:43
Post #1

Правь статус, ####!111
**************
Group: Металариец
Posts: 28,179
Releases: 20563
From: Г.Харьков
On Forums: 9 years 6 months
Thanks: 418883 time(s)
Unknown


(IMG:http://metalarea.org/images/audiocovers/2021_Jan/acov_tid346527_thumb.jpg)

*Artist: Fugue Tomb
*Album: Shattered Identity [ep]
*Year: 2021
*Genre: Sludge/Doom Metal
*Country: Australia (IMG:http://metalarea.org/forum/style_images/flags/Australia.png)
*Format: mp3@CBR320kbps
*Size: 49MB

Tracklist:
1. Witness 04:27
2. Dissociative Fugue 04:08
3. Until You Can Love 03:05
4. Windowpane of Woe 04:25
5. Cruel Inheritance 04:03
******************************
Total playing time: 20:08




Extended info
Greg Turner Bass (2020-present)
See also: Animal, Neomantra, The B-Tools, ex-Pyromesh, ex-King Onion
Dusan Sekerac Drums (2020-present)
See also: ex-Animistic
Royce Zanetic Guitars (2020-present)
See also: ex-Left Ablaze, Neomantra, ex-Animistic
Marco Ieritano Vocals (2020-present)
See also: Crypt Crawler


Technical info
(IMG:http://metalarea.org/images/spectrogram/2021_Jan/9d96018e9035b5db83bc4e8bb3764930.png)
Input File: 04 Windowpane of Woe.mp3
Channels : 2
Sample Rate : 44100
Precision : 16-bit
Duration : 00:04:24.90 = 11681914 samples = 19867.2 CDDA sectors
File Size : 11.1M
Bit Rate : 336k
Sample Encoding: MPEG audio (layer I, II or III)
Comments :
Title=Windowpane of Woe
Artist=Fugue Tomb
Album=Shattered Identity
Tracknumber=4/5
Year=2021-21-20
Genre=Metal
Discnumber=1/1



Register


Go to the top of the page
  Insert nick Quick quote
+Quote Post

Reply to this topicStart new topic
1 User(s) are reading this topic (1 Guests and 0 Anonymous Users)
0 Members:

 



- Lo-Fi Version Support form
Copyrights and abuse reports form
Time is now: 4th December 2021 - 23:05:47