Welcome Guest ( Log In | Register )

Объявления

* gmail.com упорно продолжает считать почту с нас "unsolicited" и отбивает в том числе и письма активации, поэтому просьба использовать альтернативные почтовые ящики.
------------
* gmail.com continues reject all mail from us as "unsolicited" (activation mails too) therefore please use alternate mail servers.
 
Reply to this topicStart new topic
> The True Endless - Blacklight Inferno (2017), Black Metal (D)
post Jan 30 2021, 22:21:29
Post #1

Правь статус, ####!111
**************
Group: Металариец
Posts: 35,961
Releases: 26798
From: Г.Харьков
On Forums: 12 years 2 weeks
Thanks: 581425 time(s)
Ukraine


(IMG:https://metalarea.org/images/audiocovers/2021_Jan/acov_tid346685_thumb.jpg)

*Artist: The True Endless
*Album: Blacklight Inferno
*Year: 2017
*Genre: Black Metal
*Country: Italy (IMG:https://metalarea.org/forum/style_images/flags/Italy.png)
*Format: mp3@CBR320kbps
*Size: 116MB

Tracklist:
1. Leaking from the Abyss (Intro) 01:19
2. Wings of Wrath 05:19
3. The Fire Inside 07:27
4. Pale Waves 06:19
5. Glorify the Reaper 04:57
6. Black Swamp 07:09
7. Alchemica Unione 07:10
8. I Drink the Devil's Blood 03:47
9. Margoroth 05:44
10. Staring at the Flame (Outro) 01:31
******************************
Total playing time: 50:42




Extended info
Soulfucker Bass (1997-2017)
See also: Nervosa, Kirlian Camera, Mia Wallace, Niryth, ex-Abbath, ex-Teuta, ex-Darkness, ex-Huginn, ex-Skoll, ex-Triumph of Death
M. Guitars, Vocals (1997-2017)
(R.I.P. 2017) See also: ex-A Forest, ex-Huginn, ex-The Blessed Hellbrigade, ex-Emortualis, ex-Opera IX, ex-Profezia, ex-Teuta, ex-Malpas (live), ex-Darkness, ex-Skoll, ex-Torvara, ex-Zenith
Algol Drums (2013-2017)
See also: Forgotten Tomb, Hiems, Mek Na Ver, Nocturnal Depression (live), ex-The Tombers, ex-SN, Kirlian Camera, Triumph of Death


Technical info
(IMG:https://metalarea.org/images/spectrogram/2021_Jan/b113f7e0437edc92aa76ca8a2844b1ab.png)
Input File: 07 Alchemica Unione.mp3
Channels : 2
Sample Rate : 44100
Precision : 16-bit
Duration : 00:07:10.81 = 18998809 samples = 32310.9 CDDA sectors
File Size : 17.3M
Bit Rate : 321k
Sample Encoding: MPEG audio (layer I, II or III)
Comments :
Title=Alchemica Unione
Artist=The True Endless
Album=Blacklight Inferno
Tracknumber=7
Year=2021



Register


Go to the top of the page
  Insert nick Quick quote
+Quote Post

Reply to this topicStart new topic
1 User(s) are reading this topic (1 Guests and 0 Anonymous Users)
0 Members:

 



- Lo-Fi Version Support form
Copyrights and abuse reports form
Time is now: 29th May 2024 - 10:02:11