Welcome Guest ( Log In | Register )

> Wallride Of Death - Воскрешение [ep] (2020), Black Metal
post Jan 31 2021, 21:53:38
Post #1

Правь статус, ####!616
**************
Group: Металариец
Posts: 6,606
Releases: 5077
From: 55°35’N 38°08’E
On Forums: 13 years 2 weeks
Thanks: 93217 time(s)
Unknown


(IMG:https://metalarea.org/images/audiocovers/2021_Jan/acov_tid346722_thumb.jpg)

*Artist: Wallride Of Death
*Album: Воскрешение [ep]
*Year: 2020
*Genre: Black Metal
*Country: Russian Federation (IMG:https://metalarea.org/forum/style_images/flags/Russian%20Federation.png)
*Format: mp3@CBR320kbps
*Size: 27MB

Tracklist:
1. 666 Months 03:56
2. Resurrection 02:16
3. Powerslide on the Graveyard Hill 04:23
******************************
Total playing time: 10:35




Technical info
(IMG:https://metalarea.org/images/spectrogram/2021_Jan/905cb7bbf39b2edbbc0a7f8557765ce7.png)
Input File: 01 666 МЕСЯЦЕВ - 666 MONTHS.mp3
Channels : 2
Sample Rate : 44100
Precision : 16-bit
Duration : 00:03:56.69 = 10437809 samples = 17751.4 CDDA sectors
File Size : 9.69M
Bit Rate : 328k
Sample Encoding: MPEG audio (layer I, II or III)
Comments :
Title=666 МЕСЯЦЕВ / 666 MONTHS
Artist=WALLRIDE OF DEATH
Album=ВОСКРЕШЕНИЕ / RESURRECTION
Tracknumber=1
Year=2020
Genre=Black Metal



Register


Go to the top of the page
  Insert nick Quick quote
+Quote Post
 
Start new topic
Replies (1 - 2)
post Feb 1 2021, 23:55:32
Post #2

Пять Литров
*****
Group: Металариец
Posts: 434
Releases: 73
From: italy
On Forums: 13 years 2 weeks
Thanks: 1643 time(s)
Italy


Lyrical themes:
Anti-religion, Occultism, Skateboarding


(IMG:style_emoticons/default/facessspalm.png)


Go to the top of the page
  Insert nick Quick quote
+Quote Post
post Feb 10 2021, 12:32:53
Post #3

Forever Underground
**************
Group: Металариец
Posts: 8,555
Releases: 0
On Forums: 6 years 3 months
Thanks: 11793 time(s)
Unknown


QUOTE(murian @ Feb 1 2021, 23:55:32) *
Lyrical themes:......Skateboarding
(IMG:style_emoticons/default/facessspalm.png)

"Skate or die" (IMG:style_emoticons/default/1488.gif) (IMG:style_emoticons/default/15.gif) (IMG:style_emoticons/default/15.gif) (IMG:style_emoticons/default/15.gif) (IMG:style_emoticons/default/headcrab.png)
(IMG:style_emoticons/default/normal_Homerdisgust3s.png)
Go to the top of the page
  Insert nick Quick quote
+Quote Post

Reply to this topicStart new topic
1 User(s) are reading this topic (1 Guests and 0 Anonymous Users)
0 Members:

 



- Lo-Fi Version Support form
Copyrights and abuse reports form
Time is now: 25th July 2021 - 04:32:13