Welcome Guest ( Log In | Register )

 
Reply to this topicStart new topic
> Ātesh - Rāh-E Sāhi-Ye Sar-Zamin-E Abadi-Ye Jāvīdān [ep] (2020), Raw Black Metal
post Feb 1 2021, 23:51:19
Post #1

Пять Литров
*****
Group: Металариец
Posts: 431
Releases: 73
From: italy
On Forums: 12 years 11 months
Thanks: 1640 time(s)
Italy


(IMG:http://metalarea.org/images/audiocovers/2021_Feb/acov_tid346766_thumb.jpg)

*Artist: Ātesh
*Album: Rāh-E Sāhi-Ye Sar-Zamin-E Abadi-Ye Jāvīdān [ep]
*Year: 2020
*Genre: Raw Black Metal
*Country: Unknown (IMG:http://metalarea.org/forum/style_images/flags/Unknown.png)
*Format: mp3@CBR192kbps
*Size: 49MB

Tracklist:
1. Intro 01:52
2. Vāresān-e Khun-e Šāhan-šāhi 07:43
3. Šokuh-e Arteš-e Ṭalā'i 07:41
4. Rāh-pejmā'i-ye Jāvīdān 08:13
5. Qodrat-e Zolm 08:11
6. Outro 00:39
******************************
Total playing time: 34:19

Technical info
(IMG:http://metalarea.org/images/spectrogram/2021_Feb/8376f0f6e4bdf3ca41aec60cdd706fbe.png)
Input File: 03 Šokuh-e Arteš-e Ṭalā\'i.mp3
Channels : 2
Sample Rate : 44100
Precision : 16-bit
Duration : 00:07:40.99 = 20329791 samples = 34574.5 CDDA sectors
File Size : 11.6M
Bit Rate : 201k
Sample Encoding: MPEG audio (layer I, II or III)
Comments :
Title=Šokuh-e Arteš-e Ṭalā'i
Artist=Ātesh
Album=Rāh-e Sāhi-ye Sar-zamin-e Abadi-ye Jāvīdān
Tracknumber=3
Year=2020
Genre=Black Metal
Discnumber=1/1



Register


Go to the top of the page
  Insert nick Quick quote
+Quote Post

Reply to this topicStart new topic
2 User(s) are reading this topic (2 Guests and 0 Anonymous Users)
0 Members:

 



- Lo-Fi Version Support form
Copyrights and abuse reports form
Time is now: 20th June 2021 - 23:26:35