Welcome Guest ( Log In | Register )

> Eclipse - Bloody Pathology (1994), Death Metal (D)
post Feb 2 2021, 09:54:17
Post #1

Сволочь обыкновенная
**************
Group: Металариец
Posts: 2,816
Releases: 166
From: Брест
On Forums: 13 years 3 months
Thanks: 4078 time(s)
Belarus


(IMG:https://metalarea.org/images/audiocovers/2021_Feb/acov_tid346772_thumb.jpg)

*Artist: Eclipse
*Album: Bloody Pathology
*Year: 1994
*Genre: Death Metal
*Country: Russian Federation (IMG:https://metalarea.org/forum/style_images/flags/Russian%20Federation.png)
*Format: mp3@CBR320kbps
*Size: 92MB

Tracklist:
01. Flesh Decay 04:59
02. Virus 07:09
03. Exhumation 06:12
04. Journey In The Sewage 03:45
05. The Saw And Sulphuric Acid 03:37
06. Infectious Dead 03:17
07. Vengeance Of The March Corpses 03:07
08. Sign Of Hate 06:58
******************************
Total playing time: 39:04

Extended info
Легендарное в рамках нашего андерграунда demo 1994-го года новодвинских Eclipse переизданное в прошлом году (2020-м) в формате полноценного альбома на CD на GATE OF THE SILVER KEY Prod. Как указано на bandcamp: "Digitization and new mastering of sound were made". Для любителей старого доброго андеграундного death metal. Лично я порадовался и всем рекомендую, в том числе к приобретению.


Technical info
(IMG:https://metalarea.org/images/spectrogram/2021_Feb/ed984bb0327eb3946194d0150ca04b63.png)
Input File: 01 Flesh Decay.mp3
Channels : 2
Sample Rate : 44100
Precision : 16-bit
Duration : 00:04:59.57 = 13210817 samples = 22467.4 CDDA sectors
File Size : 12.1M
Bit Rate : 324k
Sample Encoding: MPEG audio (layer I, II or III)
Comments :
Title=Flesh Decay
Artist=Eclipse
Album=Bloody Pathology
Tracknumber=1
Year=2020



Register


Go to the top of the page
  Insert nick Quick quote
+Quote Post
 
Start new topic
Replies (1 - 1)
post Feb 2 2021, 12:21:02
Post #2

Morbid Angel
**************
Group: Металариец
Posts: 4,175
Releases: 0
From: Литва г.Клайпеда
On Forums: 14 years 4 months
Thanks: 1813 time(s)
Lithuania




Thanks:
(1) lldma,
Go to the top of the page
  Insert nick Quick quote
+Quote Post

Reply to this topicStart new topic
2 User(s) are reading this topic (2 Guests and 0 Anonymous Users)
0 Members:

 



- Lo-Fi Version Support form
Copyrights and abuse reports form
Time is now: 4th August 2021 - 13:39:02