Welcome Guest ( Log In | Register )

> Command & Vothana - Der Sonnenmensch/Đôi Cánh Của Sự Giận Du (The Wings Of Fury) [split] (2020), Raw Black Metal/Punk | Black Metal (D)
post Feb 2 2021, 21:21:00
Post #1

Пять Литров
*****
Group: Металариец
Posts: 431
Releases: 73
From: italy
On Forums: 12 years 11 months
Thanks: 1640 time(s)
Italy


(IMG:http://metalarea.org/images/audiocovers/2021_Feb/acov_tid346786_thumb.jpg)

*Artist: Command & Vothana
*Album: Der Sonnenmensch/Đôi Cánh Của Sự Giận Du (The Wings Of Fury) [split]
*Year: 2020
*Genre: Raw Black Metal/Punk | Black Metal
*Country: Brazil (IMG:http://metalarea.org/forum/style_images/flags/Brazil.png) | United States (IMG:http://metalarea.org/forum/style_images/flags/United%20States.png)
*Format: mp3@CBR320kbps
*Size: 32MB

Tracklist:
Side A
1. Command - Conqueror's Blood 03:41
2. Command - Der Sonnenmensch 02:57
Side B
3. Vothana - Đôi Cánh Của Sự Giận Du (The Wings of Fury) 06:48
******************************
Total playing time: 13:26

Technical info
(IMG:http://metalarea.org/images/spectrogram/2021_Feb/da8d73dc7285cd205b1d9a15db4ecf32.png)
Input File: 01. Command - Conqueror\'s Blood.mp3
Channels : 2
Sample Rate : 44100
Precision : 16-bit
Duration : 00:03:40.20 = 9710864 samples = 16515.1 CDDA sectors
File Size : 9.20M
Bit Rate : 334k
Sample Encoding: MPEG audio (layer I, II or III)
Comments :
Title=Conqueror's Blood
Artist=Command
Album=Der Sonnenmensch / Đôi Cánh Của Sự Giận Du (The Wings Of Fury)
Tracknumber=1
Year=2020
Genre=Black Metal



Register


Go to the top of the page
  Insert nick Quick quote
+Quote Post
 
Start new topic
Replies (1 - 2)
post Feb 6 2021, 18:02:58
Post #2

Три Литра
***
Group: Завсегдатай
Posts: 222
Releases: 0
On Forums: 5 months 3 hours
Thanks: 191 time(s)
Russian Federation


После первого прослушивания данного сплита, по отношению к треку на стороне Vothana, складывается впечатление более позитивное, нежели от любой другой записи которая вышла из под пера данного "идейного" вьетконговца, ныне базирующегося в США. Инструментальная часть Đôi Cánh Của Sự Giận Du (IMG:style_emoticons/default/headcrab.png) в целом хороша, конечно в рамках очень сырого, даже ультра сырого Блэк Метала. Только характерный вокал вьетнамского товарища немного портит впечатления. Здесь как и всегда идет перебор в использовании примочек. А так 4 с + очень здравая оценка.
Сторона бразильских праворадикалов Command понравилась мне больше. Припанкованных Блэк Метал не лишенный эпичности и идейности в целом. Тут и расписывать особо нечего.
Вывод: Если бы все это не стоило так неоправданно дорого, то я как тепло относящийся слушатель/коллекционер к НСБМ и прочим смежным течениям в экстремальной (экстремистской) музыке, его бы для коллекции обязательно прикупил. А так конечно не надо. Ибо дорого и положа "руку на сердце" оно того откровенно не стоит.
Go to the top of the page
  Insert nick Quick quote
+Quote Post
post Feb 6 2021, 20:01:39
Post #3

Black Metal War
***********
Group: Металариец
Posts: 1,799
Releases: 0
From: R'lyeh
On Forums: 4 years 6 months
Thanks: 2323 time(s)
Poland


This split is noteworthy, because of Command. For me Vothana is very forgettable and uninteresting as usual.
Go to the top of the page
  Insert nick Quick quote
+Quote Post

Reply to this topicStart new topic
2 User(s) are reading this topic (2 Guests and 0 Anonymous Users)
0 Members:

 



- Lo-Fi Version Support form
Copyrights and abuse reports form
Time is now: 20th June 2021 - 23:25:57