Welcome Guest ( Log In | Register )

> Bellwethr - Into The Twisted Limbs (2021), Depressive Black Metal
post Feb 5 2021, 00:25:48
Post #1

Время Мары
**************
Group: Металариец
Posts: 3,251
Releases: 474
From: Харьков
On Forums: 12 years 3 months
Thanks: 9771 time(s)
Ukraine


(IMG:http://metalarea.org/images/audiocovers/2021_Feb/acov_tid346893_thumb.jpg)

*Artist: Bellwethr
*Album: Into The Twisted Limbs
*Year: 2021
*Genre: Depressive Black Metal
*Country: United States (IMG:http://metalarea.org/forum/style_images/flags/United%20States.png)
*Format: mp3@CBR320kbps
*Size: 148MB

Tracklist:
01. Fading 02:10
02. Revelation in Solemn Oak 24:59
03. Interlude 04:01
04. A Plea to the Somber 06:52
05. Autumn Brings My Dread 06:24
06. Interlude II 03:20
07. Eternal Repose 08:57
08. Memento Mori 07:22
******************************
Total playing time: 1:04:05

Technical info
(IMG:http://metalarea.org/images/spectrogram/2021_Feb/926f34dd52884464b28daa72a15426fc.png)
Input File: 04 - A Plea to the Somber.mp3
Channels : 2
Sample Rate : 44100
Precision : 16-bit
Duration : 00:06:51.74 = 18157778 samples = 30880.6 CDDA sectors
File Size : 16.6M
Bit Rate : 322k
Sample Encoding: MPEG audio (layer I, II or III)
Comments :
Title=A Plea to the Somber
Artist=Bellwethr
Album=Into the Twisted Limbs
Tracknumber=4
Year=2021
Discnumber=1/1



Register


Go to the top of the page
  Insert nick Quick quote
+Quote Post
 
Start new topic
Replies (1 - 3)
post Feb 5 2021, 08:25:13
Post #2

Маньяк
**********
Group: Металариец
Posts: 1,285
Releases: 37
From: великий город Питер
On Forums: 15 years 9 months
Thanks: 2144 time(s)
Russian Federation




Go to the top of the page
  Insert nick Quick quote
+Quote Post
post Feb 6 2021, 06:35:39
Post #3

i listen to black metal
**************
Group: Металариец
Posts: 3,036
Releases: 138
From: Москва
On Forums: 14 years 9 months
Thanks: 2325 time(s)
Russian Federation


что то невнятное прохрипел,сказал
музыки накидал в разнобой и вот (IMG:style_emoticons/default/22.gif) (IMG:style_emoticons/default/23.gif)
Go to the top of the page
  Insert nick Quick quote
+Quote Post
post Feb 23 2021, 13:08:51
Post #4

добрый мизантроп
**************
Group: Металариец
Posts: 2,386
Releases: 1
From: Менск
On Forums: 10 years 10 months
Thanks: 1079 time(s)
Madagascar


ЦИТАТА(Victim of fate @ Feb 6 2021, 08:35:39) *
что то невнятное прохрипел,сказал
музыки накидал в разнобой и вот (IMG:style_emoticons/default/22.gif) (IMG:style_emoticons/default/23.gif)

Думаю надо эксплуатировать тэг low-fi. Такие релизы имеют свою аудиторию на МА и изи набирают 20 сенек, когда такого же уровня музыки обычный БМ набирает 12.
На свой вкус я бы чекал релизы low-fi + raw BM, а low-fi + BM/ABM игнорил.
Go to the top of the page
  Insert nick Quick quote
+Quote Post

Reply to this topicStart new topic
1 User(s) are reading this topic (1 Guests and 0 Anonymous Users)
0 Members:

 



- Lo-Fi Version Support form
Copyrights and abuse reports form
Time is now: 24th September 2021 - 08:01:07