Welcome Guest ( Log In | Register )

> Southern Cross - Enigmatic Creation (2020), Death/Thrash Metal (D5)
post Feb 7 2021, 09:32:22
Post #1

Правь статус, ####!111
**************
Group: Металариец
Posts: 26,658
Releases: 19228
From: Г.Харьков
On Forums: 9 years 2 months
Thanks: 384087 time(s)
Unknown


(IMG:https://metalarea.org/images/audiocovers/2021_Feb/acov_tid347056_thumb.jpg)

*Artist: Southern Cross
*Album: Enigmatic Creation
*Year: 2020
*Genre: Death/Thrash Metal
*Country: Chile (IMG:https://metalarea.org/forum/style_images/flags/Chile.png)
*Format: mp3@CBR320kbps
*Size: 94MB

Tracklist:
1. Fundation Of Humanity 02:57
2. Southern Path/Ancestral Legacy 04:30
3. Brotherhood Of The Serpent 05:27
4. Death Shadows 05:00
5. Blue Blood 06:24
6. Pit Of The Abyss 03:38
7. Sarcastic Existence (Instrumental) 04:14
8. Masters Of Time 07:27
******************************
Total playing time: 39:37




Technical info
(IMG:https://metalarea.org/images/spectrogram/2021_Feb/c8ec785cfdb3b77a17e7a3bffb6f96df.png)
Input File: 08 Masters of Time.mp3
Channels : 2
Sample Rate : 44100
Precision : 16-bit
Duration : 00:07:29.12 = 19806280 samples = 33684.1 CDDA sectors
File Size : 18.4M
Bit Rate : 328k
Sample Encoding: MPEG audio (layer I, II or III)
Comments :
Title=Masters of Time
Artist=Southern Cross
Album=Enigmatic Creation
Tracknumber=8/8
Year=2020-20-20
Genre=Metal
Discnumber=1/1



Register


Go to the top of the page
  Insert nick Quick quote
+Quote Post
 
Start new topic
Replies (1 - 4)
post Feb 7 2021, 16:06:56
Post #2

Восемь Литров
********
Group: Металариец
Posts: 880
Releases: 0
From: South Of Heaven
On Forums: 13 years 11 months
Thanks: 420 time(s)
Ukraine


Ничё так, живенько ! (IMG:style_emoticons/default/metaler.gif) под чилийский Совиньон самое оно (IMG:style_emoticons/default/smile1.gif)
Релизёру велика подяка (IMG:style_emoticons/default/9.gif)


Go to the top of the page
  Insert nick Quick quote
+Quote Post
post Feb 7 2021, 17:14:18
Post #3

Четыре Литра
****
Group: Металариец
Posts: 376
Releases: 0
From: Kyiv
On Forums: 9 years 3 months
Thanks: 154 time(s)
Ukraine


Таке (IMG:style_emoticons/default/21.gif)


Thanks:
(1) Andrew,
Go to the top of the page
  Insert nick Quick quote
+Quote Post
post Feb 7 2021, 20:58:34
Post #4

Восемь Литров
********
Group: Металариец
Posts: 880
Releases: 0
From: South Of Heaven
On Forums: 13 years 11 months
Thanks: 420 time(s)
Ukraine


ЦИТАТА(kessler @ 7th February 2021 - 18:14:18) *
Таке

ну ты бы хоть спасибо релизёру сказал, а то как тот "граф" - скачал, послушал, написал как не понравилось, и фсьо.


Thanks:
Go to the top of the page
  Insert nick Quick quote
+Quote Post
post Feb 9 2021, 20:29:57
Post #5

MDM-Thrash Metal
**************
Group: Металариец
Posts: 10,482
Releases: 1257
From: Одесса
On Forums: 13 years 11 months
Thanks: 30642 time(s)
Ukraine


ЦИТАТА(kessler @ Feb 7 2021, 20:14:18) *

Скорее напоминает просто набор риффов, аккордов, но целостная музыкальная картина как такова напрочь отсутствует.
Go to the top of the page
  Insert nick Quick quote
+Quote Post

Reply to this topicStart new topic
2 User(s) are reading this topic (2 Guests and 0 Anonymous Users)
0 Members:

 



- Lo-Fi Version Support form
Copyrights and abuse reports form
Time is now: 25th July 2021 - 04:25:06