Welcome Guest ( Log In | Register )

> Goat - Promo 2020 [demo] (2020), Black/Death Metal
post Feb 8 2021, 20:16:02
Post #1

Правь статус, ####!616
**************
Group: Металариец
Posts: 6,931
Releases: 5384
From: 55°35’N 38°08’E
On Forums: 13 years 2 months
Thanks: 98667 time(s)
Unknown


(IMG:https://metalarea.org/images/audiocovers/2021_Feb/acov_tid347106_thumb.jpg)

*Artist: Goat
*Album: Promo 2020 [demo]
*Year: 2020
*Genre: Black/Death Metal
*Country: Greece (IMG:https://metalarea.org/forum/style_images/flags/Greece.png)
*Format: mp3@CBR320kbps
*Size: 20MB

Tracklist:
1.Time 01:36
2.Progression To Violence 02:28
3.Extermination 02:11
******************************
Total playing time: 6:15



Technical info
(IMG:https://metalarea.org/images/spectrogram/2021_Feb/6642e9af14b529022c778a7f6835f362.png)
Input File: 02 Progression To Violence.mp3
Channels : 1
Sample Rate : 44100
Precision : 16-bit
Duration : 00:02:28.10 = 6531166 samples = 11107.4 CDDA sectors
File Size : 6.21M
Bit Rate : 336k
Sample Encoding: MPEG audio (layer I, II or III)
Comments :
Title=Progression To Violence
Artist=Goat
Album=Promo 2020
Tracknumber=2
Year=2020
Genre=Black/Death Metal



Register


Go to the top of the page
  Insert nick Quick quote
+Quote Post
 
Start new topic
Replies (1 - 1)
post Feb 10 2021, 12:13:07
Post #2

Пять Литров
*****
Group: Металариец
Posts: 435
Releases: 73
From: italy
On Forums: 13 years 2 months
Thanks: 1645 time(s)
Italy


original band name and song titles, unique riffs


Thanks:
Go to the top of the page
  Insert nick Quick quote
+Quote Post

Reply to this topicStart new topic
1 User(s) are reading this topic (1 Guests and 0 Anonymous Users)
0 Members:

 



- Lo-Fi Version Support form
Copyrights and abuse reports form
Time is now: 19th September 2021 - 17:23:26