Welcome Guest ( Log In | Register )

 
Reply to this topicStart new topic
> Ulcer - Ulcer [demo] (1997), Death Metal (D13)
post Feb 10 2021, 12:08:16
Post #1

Подвал
**************
Group: Металариец
Posts: 16,247
Releases: 9310
From: Far East (Khabarovsk)
On Forums: 12 years 7 months
Thanks: 105721 time(s)
Russian Federation


(IMG:http://metalarea.org/images/audiocovers/2021_Feb/acov_tid347168_thumb.jpg)

*Artist: Ulcer
*Album: Ulcer [demo]
*Year: 1997
*Genre: Death Metal
*Country: United States (IMG:http://metalarea.org/forum/style_images/flags/United%20States.png)
*Format: mp3@CBR320kbps
*Size: 136MB

Tracklist:
1. For Dying 02:49
2. Beat To A Pulp 02:40
3. Drink Of Boiled Blood 03:11
4. Sick 04:22
5. Need To Obsess 05:03
6. Dead Maggot Spitting Head 03:39
7. Gut Feelings 05:05
8. New Age Killings 04:22
9. Scrum Of Slime 04:05
10. Buried Is The Name 04:21
11. Ulcer 05:24
12. The Death Of Family 03:29
13. Drink Of Boiled Blood 03:21
14. Dead Maggot Spitting Head 03:40
15. Buried Is The Name 04:48
16. Serum Of Slime 04:08
17. Duct Tape Suffocation 03:48
******************************
Total playing time: 1:08:15


(IMG:http://metalarea.org/images/youtube.png)

Extended info
Band from Tampa, Florida.
Recorded at E.S Productions, Pinellas Park, Florida.
Trax 13 - 17 originally taken from their first demo. Those bonuses were a continued part of "The Death Of Family" track on the disk.


Technical info
(IMG:http://metalarea.org/images/spectrogram/2021_Feb/be49cf8221d25d9a143a8c4b07495103.png)
Input File: 01-For Dying.mp3
Channels : 2
Sample Rate : 44100
Precision : 16-bit
Duration : 00:02:48.99 = 7452415 samples = 12674.2 CDDA sectors
File Size : 6.76M
Bit Rate : 320k
Sample Encoding: MPEG audio (layer I, II or III)
Comments :
Title=For Dying
Artist=Ulcer
Album=Ulcer (Demo)
Tracknumber=01
Year=1997
Genre=Death Metal



Register


Go to the top of the page
  Insert nick Quick quote
+Quote Post

Reply to this topicStart new topic
1 User(s) are reading this topic (1 Guests and 0 Anonymous Users)
0 Members:

 



- Lo-Fi Version Support form
Copyrights and abuse reports form
Time is now: 19th September 2021 - 18:06:38