Welcome Guest ( Log In | Register )

> Asregen - Saturnus’ Nacht (2014), Atmospheric Black Metal
post Feb 10 2021, 22:10:50
Post #1

Malum dominus omnium
****
Group: Металариец
Posts: 366
Releases: 276
On Forums: 1 year 4 months
Thanks: 5564 time(s)
Vatican City


(IMG:https://metalarea.org/images/audiocovers/2021_Feb/acov_tid347190_thumb.jpg)

*Artist: Asregen
*Album: Saturnus’ Nacht
*Year: 2014
*Genre: Atmospheric Black Metal
*Country: Netherlands (IMG:https://metalarea.org/forum/style_images/flags/Netherlands.png)
*Format: mp3@CBR320kbps
*Size: 112MB

Tracklist:
1. Koperen poort, ingang naar het rijk der driften 04:53
2. Verderf zaaiend met ijzeren scepter 04:19
3. Gekweld onder kosmisch lood, het sterfelijke vat verterend 08:15
4. Ware kracht, interne zwarte macht 04:03
5. De astrale reis van bloed en vuur 04:49
6. Buiten het rijk van deze wereld 02:37
7. Ongeraffineerd, gouden sfeer van ongeremde energie 05:57
8. Desolaat, pokdalig en volmaakt zilver 04:24
9. Grenzen van het fysieke overschrijdend 05:56
10. Kosmische sleutel 03:02
******************************
Total playing time: 48:15


(IMG:https://metalarea.org/images/youtube.png)
Metal Archives


Technical info
(IMG:https://metalarea.org/images/spectrogram/2021_Feb/96d576c3abe7912c9a5da06dd8ce14b4.png)
Input File: Asregen - Saturnus\' nacht - 01 Koperen poort, ingang naar het rijk der driften.mp3
Channels : 2
Sample Rate : 44100
Precision : 16-bit
Duration : 00:04:53.45 = 12941101 samples = 22008.7 CDDA sectors
File Size : 11.9M
Bit Rate : 324k
Sample Encoding: MPEG audio (layer I, II or III)
Comments :
Title=Koperen poort, ingang naar het rijk der driften
Artist=Asregen
Album=Saturnus' nacht
Tracknumber=1
Year=2020



Register

Register


Go to the top of the page
  Insert nick Quick quote
+Quote Post
 
Start new topic
Replies (1 - 1)
post Feb 11 2021, 03:09:27
Post #2

\m/
Group Icon
Group: S-moderation team
Posts: 7,932
Releases: 19
From: Петропавловск-Камчатский
On Forums: 12 years 1 week
Thanks: 7984 time(s)
Russian Federation


Added links by smysl


Thanks:
(1) Occultas,
Go to the top of the page
  Insert nick Quick quote
+Quote Post

Reply to this topicStart new topic
2 User(s) are reading this topic (2 Guests and 0 Anonymous Users)
0 Members:

 



- Lo-Fi Version Support form
Copyrights and abuse reports form
Time is now: 25th June 2021 - 11:27:43