Welcome Guest ( Log In | Register )

> Exist - In The Void We Last (2021), Old School Thrash Metal (D7)
post Feb 11 2021, 13:55:58
Post #1

Правь статус, ####!111
**************
Group: Металариец
Posts: 26,655
Releases: 19228
From: Г.Харьков
On Forums: 9 years 2 months
Thanks: 384063 time(s)
Unknown


(IMG:https://metalarea.org/images/audiocovers/2021_Feb/acov_tid347216_thumb.jpg)

*Artist: Exist
*Album: In The Void We Last
*Year: 2021
*Genre: Old School Thrash Metal
*Country: Poland (IMG:https://metalarea.org/forum/style_images/flags/Poland.png)
*Format: mp3@CBR320kbps
*Size: 75MB

Tracklist:
1. Far Beyond the Light 05:45
2. Chained 05:18
3. High AF 04:20
4. Our Seduction 04:30
5. In the Void We Last 06:51
6. Excluded from Society 04:19
7. The Vein 01:18
******************************
Total playing time: 32:21



Extended info
Jan Szymeczko Drums (2014-present)
See also: ex-Savior (live)
Felix Jakubowski Guitars (lead) (2014-present)
Kacper Tyloch Vocals, Guitars (2014-present)
See also: Savior
Szymon Milewski Bass (2020-present)


Technical info
(IMG:https://metalarea.org/images/spectrogram/2021_Feb/4b15facb38dfd91054acf110b529eddb.png)
Input File: 05 - In The Void We Last.mp3
Channels : 2
Sample Rate : 44100
Precision : 16-bit
Duration : 00:06:49.31 = 18050659 samples = 30698.4 CDDA sectors
File Size : 16.6M
Bit Rate : 324k
Sample Encoding: MPEG audio (layer I, II or III)
Comments :
Title=In The Void We Last
Artist=Exist
Album=In The Void We Last
Tracknumber=5
Year=2021
Discnumber=1/1



Register


Go to the top of the page
  Insert nick Quick quote
+Quote Post
 
Start new topic
Replies (1 - 2)
post Feb 11 2021, 19:39:56
Post #2

Восемь Литров
********
Group: Металариец
Posts: 880
Releases: 0
From: South Of Heaven
On Forums: 13 years 11 months
Thanks: 420 time(s)
Ukraine


Вахх... Качаю бигом ! (IMG:style_emoticons/default/5.gif) Самаритяныч красава! Респект и (IMG:style_emoticons/default/9.gif) (IMG:style_emoticons/default/9.gif)


Go to the top of the page
  Insert nick Quick quote
+Quote Post
post Feb 13 2021, 21:49:46
Post #3

Четыре Литра
****
Group: Металариец
Posts: 376
Releases: 0
From: Kyiv
On Forums: 9 years 3 months
Thanks: 154 time(s)
Ukraine


Ооооочень непогано. Сегодня по пурге ходил, раза три прогнал в наушниках. Векторовщина (IMG:style_emoticons/default/20.gif) Надо пластинку брать.


Thanks:
Go to the top of the page
  Insert nick Quick quote
+Quote Post

Reply to this topicStart new topic
2 User(s) are reading this topic (2 Guests and 0 Anonymous Users)
0 Members:

 



- Lo-Fi Version Support form
Copyrights and abuse reports form
Time is now: 25th July 2021 - 03:04:19