Welcome Guest ( Log In | Register )

> The Dark Alamorte - Lunacrium Thepsis (2021), Black/Death Metal
post Feb 11 2021, 16:42:44
Post #1

Правь статус, ####!111
**************
Group: Металариец
Posts: 26,045
Releases: 18690
From: Г.Харьков
On Forums: 9 years 4 days
Thanks: 370453 time(s)
Unknown


(IMG:https://metalarea.org/images/audiocovers/2021_Feb/acov_tid347226_thumb.jpg)

*Artist: The Dark Alamorte
*Album: Lunacrium Thepsis
*Year: 2021
*Genre: Black/Death Metal
*Country: United States (IMG:https://metalarea.org/forum/style_images/flags/United%20States.png)
*Format: mp3@CBR320kbps
*Size: 179MB

Tracklist:
01. The Inner Quiet 01:49
02. Cast Into Froth 06:00
03. Gowns of Undying Light 03:49
04. Vongrimson Burrows 04:37
05. A Loathing Tomb 08:17
06. Glasshaven 04:13
07. Tempest Barren Furor 07:16
08. Inmergo Dominium 02:02
09. Antediluvian Revelation 05:42
10. Infernal Judgement 04:39
11. Ungiving Sorrow 05:36
12. Tusk in the Abyss 03:55
13. Fearfeeder 04:57
14. Scourge of Fire 04:56
15. Lunacrium Thepsis 10:17
******************************
Total playing time: 1:18:05



Technical info
(IMG:https://metalarea.org/images/spectrogram/2021_Feb/9d1d000584a09765823bc0275bcfaf03.png)
Input File: 07 - Tempest Barren Furor.mp3
Channels : 2
Sample Rate : 44100
Precision : 16-bit
Duration : 00:07:15.98 = 19226894 samples = 32698.8 CDDA sectors
File Size : 17.5M
Bit Rate : 322k
Sample Encoding: MPEG audio (layer I, II or III)
Comments :
Title=Tempest Barren Furor
Artist=The Dark Alamorte
Album=Lunacrium Thepsis
Tracknumber=7
Year=2021
Discnumber=1/1



Register


Go to the top of the page
  Insert nick Quick quote
+Quote Post
 
Start new topic
Replies (1 - 3)
post Feb 11 2021, 21:13:41
Post #2

Четыре Литра
****
Group: Металариец
Posts: 377
Releases: 212
On Forums: 8 years 8 months
Thanks: 6062 time(s)
Unknown


тут даже не Death, а вполне себе deathcore. Любят последнее время мешать симфоблэк с ДК.


Go to the top of the page
  Insert nick Quick quote
+Quote Post
post Feb 15 2021, 10:35:07
Post #3

Четыре Литра
****
Group: Металариец
Posts: 360
Releases: 5
On Forums: 14 years 1 month
Thanks: 295 time(s)
Russian Federation


ЦИТАТА(rewa @ Feb 12 2021, 00:13:41) *
тут даже не Death, а вполне себе deathcore. Любят последнее время мешать симфоблэк с ДК.


Не без него, но и death metal есть. Да и слушается очень даже. Чернота сквозит, атмосфера тянет.
Go to the top of the page
  Insert nick Quick quote
+Quote Post
post Apr 8 2021, 05:25:21
Post #4

i listen to black metal
**************
Group: Металариец
Posts: 2,936
Releases: 138
From: Москва
On Forums: 14 years 4 months
Thanks: 2309 time(s)
Russian Federation


второго голоса скрима нет
разнообразия и мелодики тоже
хорошая долбёжка на час и 20 минут уже надоела
Go to the top of the page
  Insert nick Quick quote
+Quote Post

Reply to this topicStart new topic
1 User(s) are reading this topic (1 Guests and 0 Anonymous Users)
0 Members:

 



- Lo-Fi Version Support form
Copyrights and abuse reports form
Time is now: 14th May 2021 - 18:29:38