Welcome Guest ( Log In | Register )

> Visceral Uprooting - 50​.​39​-​square​-​kilometer Mass Grave (2021), Brutal Death Metal
post Feb 13 2021, 20:08:01
Post #1

Правь статус, ####!111
**************
Group: Металариец
Posts: 4,083
Releases: 3739
From: Одесса
On Forums: 13 years 2 weeks
Thanks: 40685 time(s)
Ukraine


(IMG:http://metalarea.org/images/audiocovers/2021_Feb/acov_tid347319_thumb.jpg)

*Artist: Visceral Uprooting
*Album: 50​.​39​-​square​-​kilometer Mass Grave
*Year: 2021
*Genre: Brutal Death Metal
*Country: France (IMG:http://metalarea.org/forum/style_images/flags/France.png)
*Format: mp3@CBR320kbps
*Size: 58MB

Tracklist:
1. Human Manure
2. Ulcerated Trunk
3. Dragging Limbs
4. Raped by Flying Whales (Gojirape)
5. Harvest of Distilled Organs
6. Obstructed Defecation
7. Regurgitation of Intestinal Fluids
8. U.F.O
******************************
Total playing time: 24:13



Extended info
Line - up:
Anthony Guern - Vocals, Guitars, Bass, Drum programming (Cryogenical Excision, Dysmorfectomy, Ulsorasis, ex-Dawn of Might)

Guest/Session:
Félix - Unknown (track 8) (Cryogenical Excision, Inseminate Degeneracy, ex-Dawn of Might, ex-AntiCorpse)

(IMG:https://www.metal-archives.com/images/3/5/4/0/3540445585_photo.jpg?4936)


Technical info
(IMG:http://metalarea.org/images/spectrogram/2021_Feb/b79aec986959bdde27bef696000883b3.png)
Input File: 5. Harvest Of Distilled Organs.mp3
Channels : 2
Sample Rate : 44100
Precision : 16-bit
Duration : 00:02:54.07 = 7676311 samples = 13055 CDDA sectors
File Size : 6.97M
Bit Rate : 320k
Sample Encoding: MPEG audio (layer I, II or III)
Comments :
Title=Harvest Of Distilled Organs
Artist=Visceral Uprooting
Album=50​.​39​-​Square​-​Kilometer Mass Grave
Tracknumber=5
Year=2021
Genre=Brutal Death Metal



Register


Go to the top of the page
  Insert nick Quick quote
+Quote Post
 
Start new topic
Replies (1 - 2)
post Feb 16 2021, 09:16:41
Post #2

Маньяк
**********
Group: Металариец
Posts: 1,034
Releases: 1
From: APATIN, SERBIA, АПАТИН, СЕРБИЯ
On Forums: 13 years 7 months
Thanks: 2291 time(s)



Flac

Register


Thanks:
(1) Olethros,
Go to the top of the page
  Insert nick Quick quote
+Quote Post
post Apr 9 2021, 05:15:44
Post #3

i listen to black metal
**************
Group: Металариец
Posts: 2,950
Releases: 138
From: Москва
On Forums: 14 years 6 months
Thanks: 2318 time(s)
Russian Federation


всё хорошо....прям капельку разнообразия бы....
Go to the top of the page
  Insert nick Quick quote
+Quote Post

Reply to this topicStart new topic
1 User(s) are reading this topic (1 Guests and 0 Anonymous Users)
0 Members:

 



- Lo-Fi Version Support form
Copyrights and abuse reports form
Time is now: 22nd June 2021 - 02:34:38