Welcome Guest ( Log In | Register )

> Particle Thief - Ecdysis (2021), Progressive Groove/Math Metal
post Feb 14 2021, 14:54:47
Post #1

практики шума одухотворяющего
**************
Group: Металариец
Posts: 2,956
Releases: 71
On Forums: 3 years 4 months
Thanks: 3579 time(s)
Russian Federation


(IMG:https://metalarea.org/images/audiocovers/2021_Feb/acov_tid347337_thumb.jpg)

*Artist: Particle Thief
*Album: Ecdysis
*Year: 2021
*Genre: Progressive Groove/Math Metal
*Country: United States (IMG:https://metalarea.org/forum/style_images/flags/United%20States.png)
*Format: mp3@CBR320kbps
*Size: 183MB

Tracklist:
1.The Way That it Goes 05:12
2.Not What We Expected 04:38
3.Skin 06:36
4.Knot of Mind 06:58
5.It's Over Now 05:00
6.Be Enough 09:39
7.32 09:10
8.Memento 08:09
9.All Hail The Serpent 07:04
10.The Fall 08:49
11.Vessel 05:36
******************************
Total playing time: 1:16:51




Extended info
Line-up / Musicians:
Daniel Forbrich (Stealing Axion), Phil Willmarth (Stealing Axion), and Gerson Zaragoza


Technical info
(IMG:https://metalarea.org/images/spectrogram/2021_Feb/d48b6cfe464de9289c662924d09c4582.png)
Input File: 03. skin.mp3
Channels : 2
Sample Rate : 44100
Precision : 16-bit
Duration : 00:06:36.80 = 17498836 samples = 29759.9 CDDA sectors
File Size : 15.9M
Bit Rate : 321k
Sample Encoding: MPEG audio (layer I, II or III)
Comments :
Title=skin
Artist=Particle Thief
Album=Ecdysis
Tracknumber=3
Year=2021
Genre=Metal



Register


Go to the top of the page
  Insert nick Quick quote
+Quote Post
 
Start new topic
Replies (1 - 2)
post Feb 15 2021, 19:32:41
Post #2

тебе 30, а ты все реверсами балуешься
**************
Group: Металариец
Posts: 2,088
Releases: 4
On Forums: 12 years 10 months
Thanks: 763 time(s)
Russian Federation


Очень сочно, кстати


Go to the top of the page
  Insert nick Quick quote
+Quote Post
post Feb 15 2021, 19:42:31
Post #3

Чёткий пацан из Автово...
Group Icon
Group: V.I.P
Posts: 9,329
Releases: 40
From: Город над вольной Невой...
On Forums: 14 years 11 months
Thanks: 4814 time(s)
Russian Federation


По прослушке - крутота (IMG:style_emoticons/default/pray.gif)


Thanks:
Go to the top of the page
  Insert nick Quick quote
+Quote Post

Reply to this topicStart new topic
2 User(s) are reading this topic (2 Guests and 0 Anonymous Users)
0 Members:

 



- Lo-Fi Version Support form
Copyrights and abuse reports form
Time is now: 13th June 2021 - 17:28:25