Welcome Guest ( Log In | Register )

> И неформату есть предел.

Рэп/хип-хоп/шансон/поп удаляются. Для них есть свои порталы.

> Paul McСartney - McСartney III (2020), Rock
post Feb 14 2021, 15:49:34
Post #1

Правь статус, ####!111
**************
Group: Металариец
Posts: 48,994
Releases: 848
On Forums: 12 years 1 month
Thanks: 43994 time(s)
Russian Federation


(IMG:http://metalarea.org/images/audiocovers/2021_Feb/acov_tid347343_thumb.jpg)

*Artist: Paul McСartney
*Album: McСartney III
*Year: 2020
*Genre: Rock
*Country: United Kingdom (IMG:http://metalarea.org/forum/style_images/flags/United%20Kingdom.png)
*Format: mp3@CBR320kbps
*Size: 128MB

Tracklist:
1. Long Tailed Winter Bird
2. Find My Way
3. Pretty Boys
4. Women And Wives
5. Lavatory Lil
6. Deep Deep Feeling
7. Slidin'
8. The Kiss Of Venus
9. Seize The Day
10. Deep Down
11. Winter Bird / When Winter Comes
12. Women And Wives (Studio Outtake)
13. Lavatory Lil (Studio Outtake)
14. The Kiss Of Venus (Phone Demo)
15. Slidin' (Düsseldorf Jam)
******************************
Total playing time: 57:22

(IMG:http://metalarea.org/images/youtube.png)

Technical info
(IMG:http://metalarea.org/images/spectrogram/2021_Feb/b4908654ba900f3b8289295e002f755b.png)
Input File: 01. Long Tailed Winter Bird.mp3
Channels : 2
Sample Rate : 44100
Precision : 16-bit
Duration : 00:05:16.59 = 13961443 samples = 23744 CDDA sectors
File Size : 12.7M
Bit Rate : 321k
Sample Encoding: MPEG audio (layer I, II or III)
Comments :
Title=Long Tailed Winter Bird
Artist=Paul McCartney
Album=McCartney III (Japan Edition)
Tracknumber=01
Year=2020
Genre=Rock



Register


Go to the top of the page
  Insert nick Quick quote
+Quote Post
 
Start new topic
Replies (1 - 1)
post Feb 16 2021, 08:33:34
Post #2

Пять Литров
*****
Group: Металариец
Posts: 493
Releases: 0
From: Ташкент
On Forums: 13 years 5 months
Thanks: 160 time(s)
Uzbekistan


По большому счёту, Маккартни давно исписался, и не в состоянии выдать хиты не то, чтобы уровня Битлз, но хотя бы уровня сольной карьеры 70-80 годов. Но поражает его страсть к музыке, его стремление из раза в раз написать что-то новое, а не просто эксплуатировать великое наследие Битлз. А с точки зрения музыки - последние альбомы Ринго слушабельней гораздо.


Thanks:
Go to the top of the page
  Insert nick Quick quote
+Quote Post

Reply to this topicStart new topic
2 User(s) are reading this topic (2 Guests and 0 Anonymous Users)
0 Members:

 



- Lo-Fi Version Support form
Copyrights and abuse reports form
Time is now: 25th July 2021 - 03:35:28