Welcome Guest ( Log In | Register )

> Anguis Dei - Angeist (2021), Symphonic Black Metal
post Feb 14 2021, 18:08:45
Post #1

the faceless one
Group Icon
Group: S-moderation team
Posts: 9,604
Releases: 1979
On Forums: 15 years 8 months
Thanks: 124230 time(s)
Antarctica


(IMG:http://metalarea.org/images/audiocovers/2021_Feb/acov_tid347350_thumb.jpg)

*Artist: Anguis Dei
*Album: Angeist
*Year: 2021
*Genre: Symphonic Black Metal
*Country: Japan (IMG:http://metalarea.org/forum/style_images/flags/Japan.png)
*Format: mp3@VBR278kbps
*Size: 91MB

Tracklist:
1. Bortenfor Grensen 05:31
2. Through The Aperture Of Time 04:52
3. Angela Krudeliis Ambitiosa Nokturniis 05:52
4. Angeist 06:42
5. The Darkenbound 01:55
6. L'autre Serpent 05:34
7. Separation Of Æthyr 06:02
8. Wrestoration 08:05
******************************
Total playing time: 44:33



Extended info
Drakkar Productions,
January 31st.

Anguis Dei is part of AAAA collective (Arkha Sva, Ahpdegma, Avsolutized...)

Exclusively for metalarea.


Technical info
(IMG:http://metalarea.org/images/spectrogram/2021_Feb/918b20579d9ffb98e0ace497b9078e8c.png)
Input File: Drakkar Productions - ANGUIS DEI - Angeist - 04 Angeist.mp3
Channels : 2
Sample Rate : 44100
Precision : 16-bit
Duration : 00:06:42.96 = 17770712 samples = 30222.3 CDDA sectors
File Size : 13.9M
Bit Rate : 275k
Sample Encoding: MPEG audio (layer I, II or III)
Comments :
Title=Angeist
Artist=Anguis Dei
Album=Angeist
Tracknumber=4
Year=2020
Genre=Black Metal



Register


Go to the top of the page
  Insert nick Quick quote
+Quote Post
 
Start new topic
Replies (1 - 3)
post Feb 14 2021, 20:01:31
Post #2

Это просто место… где все подошло к концу.
**************
Group: Металариец
Posts: 6,888
Releases: 0
From: Страны Мамонтов
On Forums: 17 years 1 month
Thanks: 2891 time(s)
Antarctica


Эпичная крутобасина (IMG:style_emoticons/default/true_black.gif)


Thanks:
Go to the top of the page
  Insert nick Quick quote
+Quote Post
post Jun 17 2023, 09:23:16
Post #3

Маньяк
**********
Group: Металариец
Posts: 1,278
Releases: 0
From: Новосибирск
On Forums: 14 years 7 months
Thanks: 381 time(s)
Russian Federation


Одна из самых лучших групп современного Black Metal'а из Японии.


Thanks:
Go to the top of the page
  Insert nick Quick quote
+Quote Post
post Nov 12 2023, 12:23:45
Post #4

Правь статус, ####!111
**************
Group: Металариец
Posts: 5,168
Releases: 1566
From: Brazil
On Forums: 12 years 2 months
Thanks: 63965 time(s)
Brazil


Register

Register

CD-Rip


Thanks:
Go to the top of the page
  Insert nick Quick quote
+Quote Post

Reply to this topicStart new topic
2 User(s) are reading this topic (2 Guests and 0 Anonymous Users)
0 Members:

 



- Lo-Fi Version Support form
Copyrights and abuse reports form
Time is now: 17th April 2024 - 22:20:23