Welcome Guest ( Log In | Register )

> Goat The Head - Strictly Physical (2021), Death Metal (D4)
post Feb 15 2021, 16:48:35
Post #1

Правь статус, ####!111
**************
Group: Металариец
Posts: 4,158
Releases: 3811
From: Одесса
On Forums: 13 years 1 month
Thanks: 41565 time(s)
Ukraine


(IMG:http://metalarea.org/images/audiocovers/2021_Feb/acov_tid347387_thumb.jpg)

*Artist: Goat The Head
*Album: Strictly Physical
*Year: 2021
*Genre: Death Metal
*Country: Norway (IMG:http://metalarea.org/forum/style_images/flags/Norway.png)
*Format: mp3@CBR320kbps
*Size: 93MB

Tracklist:
1. The Call of Ixodes 05:07
2. Fit for Swine 04:16
3. Exhaler 04:29
4. The Cosmoclast 05:02
5. A Three Krater Symposium 04:08
6. Cementery Swarm 02:48
7. Blästed 02:31
8. Miracle 10:52
******************************
Total playing time: 39:13

Extended info
Line - up:

Ketil Sæther - Guitars, Vocals (additional) (ex-Ad Inferos, ex-The Apparatus, ex-Lumsk)
Per Spjøtvold - Vocals, Keyboards (Atrox, ex-The Apparatus, ex-Helsinki Horizon, ex-Kostebilen)
Kenneth Kapstad - Drums, Vocals (additional) (Altaar, Thorns, Khonsu (live), Grand General, Monolithic, Møster, Motorpsycho, Resjemheia, Spidergawd, Oslo Ess (live), ex-Ihsahn (live), ex-God Seed, ex-African Pepperbirds, ex-Animal Alpha, ex-Cucumber, ex-Dadafon, ex-Gåte, ex-Martin Hagfors, ex-SoundTank)
Trond Frønes - Bass, Vocals (additional) (Sküll, ex-Troll, ex-Black Dawn)



(IMG:https://www.metal-archives.com/images/7/4/6/2/74627_photo.jpg)
(IMG:https://f4.bcbits.com/img/0023113266_10.jpg)


Technical info
(IMG:http://metalarea.org/images/spectrogram/2021_Feb/907abeffefb84771500fd1e24894229c.png)
Input File: 07. Blästed.mp3
Channels : 2
Sample Rate : 44100
Precision : 16-bit
Duration : 00:02:30.29 = 6627921 samples = 11272 CDDA sectors
File Size : 6.10M
Bit Rate : 324k
Sample Encoding: MPEG audio (layer I, II or III)
Comments :
Title=Blasted
Artist=Goat the Head
Album=Strictly Physical
Tracknumber=7
Year=2021
Genre=22



Register


Go to the top of the page
  Insert nick Quick quote
+Quote Post
 
Start new topic
Replies (1 - 3)
post Feb 16 2021, 06:56:08
Post #2

hearer & reader
**************
Group: Металариец
Posts: 9,813
Releases: 172
From: Moscow
On Forums: 13 years 10 months
Thanks: 11065 time(s)
Russian Federation


Register


Thanks:
Go to the top of the page
  Insert nick Quick quote
+Quote Post
post Feb 16 2021, 18:55:52
Post #3

Литр
*
Group: Подсевший
Posts: 94
Releases: 0
From: Mayan Kingdom
On Forums: 12 years 8 months
Thanks: 11 time(s)
Guatemala


This sounds odd...but, i dont know how that single got me but it did. A mix of Stonerish style music meets Classic rock with Death N Roll vocals.
Go to the top of the page
  Insert nick Quick quote
+Quote Post
post Feb 17 2021, 12:41:30
Post #4

Пять Литров
*****
Group: Металариец
Posts: 493
Releases: 0
From: Ташкент
On Forums: 13 years 5 months
Thanks: 160 time(s)
Uzbekistan


Открывашка классная. Да, смесь сладжа, стонера и дэт-н-ролла. Главное, песня сама по себе хитовая. Надо слушать весь альбом.


Thanks:
Go to the top of the page
  Insert nick Quick quote
+Quote Post

Reply to this topicStart new topic
2 User(s) are reading this topic (2 Guests and 0 Anonymous Users)
0 Members:

 



- Lo-Fi Version Support form
Copyrights and abuse reports form
Time is now: 25th July 2021 - 03:46:51