Welcome Guest ( Log In | Register )

> Déhà - Contrasts Ii (2020), Atmospheric Black Metal (D13)
post Feb 16 2021, 19:52:10
Post #1

Пять Литров
*****
Group: Металариец
Posts: 431
Releases: 73
From: italy
On Forums: 12 years 11 months
Thanks: 1640 time(s)
Italy


(IMG:http://metalarea.org/images/audiocovers/2021_Feb/acov_tid347433_thumb.jpg)

*Artist: Déhà
*Album: Contrasts II
*Year: 2020
*Genre: Atmospheric Black Metal
*Country: Belgium (IMG:http://metalarea.org/forum/style_images/flags/Belgium.png)
*Format: mp3@VBR273kbps
*Size: 122MB

Tracklist:
1. Hole 20:45
2. Maddening 20:20
3. Bliss 10:12
4. This Dreadful Emptiness (Austere Cover) 10:01
******************************
Total playing time: 1:01:18



Technical info
(IMG:http://metalarea.org/images/spectrogram/2021_Feb/618718d7a11b3956630bb48130be294d.png)
Input File: Déhà - Contrasts II - 02 Maddening.mp3
Channels : 2
Sample Rate : 44100
Precision : 16-bit
Duration : 00:20:20.21 = 53811041 samples = 91515.4 CDDA sectors
File Size : 42.2M
Bit Rate : 277k
Sample Encoding: MPEG audio (layer I, II or III)
Comments :
Title=Maddening
Artist=Déhà
Album=Contrasts II
Tracknumber=2
Year=2020



Register


Go to the top of the page
  Insert nick Quick quote
+Quote Post
 
Start new topic
Replies (1 - 3)
post Feb 17 2021, 09:19:59
Post #2

Правь статус, ####!111
**************
Group: Металариец
Posts: 48,876
Releases: 834
On Forums: 12 years 2 weeks
Thanks: 43633 time(s)
Russian Federation


Блэкчанский по 20 минут (IMG:style_emoticons/default/crazy.gif) (IMG:style_emoticons/default/headcrab.png)
Go to the top of the page
  Insert nick Quick quote
+Quote Post
post Feb 18 2021, 09:53:58
Post #3

0%Tolerance
**********
Group: Металариец
Posts: 1,045
Releases: 0
On Forums: 8 years 9 months
Thanks: 188 time(s)
Unknown


Поставленное Дехой на безжалостный и беспощадный конвейер клепание всякого-разного музла и это только под этой вывеской - естественно ни к чему плодотворному в смысле написания хорошей музыки вряд ли может привести. В начале своего творческого пути (несколько лет назад) ему удалось записать несколько хороших темок, здесь же сплошное банальное атмоблэковое кукареканье. 3-й и с натяжкой 4-й треки - получше первых двух будут, но по большому счёту тоже ничего особенного.


Thanks:
Go to the top of the page
  Insert nick Quick quote
+Quote Post
post Mar 11 2021, 15:25:39
Post #4

my church is black
**********
Group: Металариец
Posts: 1,077
Releases: 4
On Forums: 4 years 1 week
Thanks: 738 time(s)
Bhutan


Ну хз. Деха, конечно, музла дофига пишет, и в его творчестве есть немало экспериментальных работ "на любителя", но что касается депроблэка, который он делает - он всё тот же годный и каноничный. Даже в рамках этого проекта, а если взять его же Ter Ziele и The Peninent - там вообще не придраться, безоговорочно отличные работы, не скатывающиеся в зефирное соплежуйство или откровенную постятину, с напористым материалом, хорошим саундом и отличным вокалом. А кто нынче ещё продолжает делать хорошие работы в стиле, за которые раньше любили Nyktalgia, Austere и Make a Change kill yourself? по пальцам пересчитать можно. так что пущай пишет, пока пишется.
Go to the top of the page
  Insert nick Quick quote
+Quote Post

Reply to this topicStart new topic
2 User(s) are reading this topic (2 Guests and 0 Anonymous Users)
0 Members:

 



- Lo-Fi Version Support form
Copyrights and abuse reports form
Time is now: 20th June 2021 - 23:24:09