Welcome Guest ( Log In | Register )

> Nördmör - Blood Of The North (2020), Black Metal
post Feb 17 2021, 18:21:34
Post #1

Правь статус, ####!616
**************
Group: Металариец
Posts: 7,008
Releases: 5454
From: 55°35’N 38°08’E
On Forums: 13 years 2 months
Thanks: 100022 time(s)
Unknown


(IMG:https://metalarea.org/images/audiocovers/2021_Feb/acov_tid347467_thumb.jpg)

*Artist: Nördmör
*Album: Blood Of The North
*Year: 2020
*Genre: Black Metal
*Country: Russian Federation (IMG:https://metalarea.org/forum/style_images/flags/Russian%20Federation.png)
*Format: mp3@CBR320kbps
*Size: 74MB

Tracklist:
1.Gjällähørn 00:46
2.Under The Sign Of Raven 03:51
3.Freezing Wind 04:52
4.Fimbülvinter 05:08
5.Välhällä 00:53
6.I Røttene Av Fjellet 02:47
7.Rägnärøk 03:55
8.Blood Of The North 10:08
******************************
Total playing time: 32:20



Technical info
(IMG:https://metalarea.org/images/spectrogram/2021_Feb/bf72ed21dbd6f16e8df177fe402e2858.png)
Input File: 02 Under The Sign Of Raven.mp3
Channels : 2
Sample Rate : 44100
Precision : 16-bit
Duration : 00:03:51.15 = 10193583 samples = 17336 CDDA sectors
File Size : 9.32M
Bit Rate : 322k
Sample Encoding: MPEG audio (layer I, II or III)
Comments :
Title=Under The Sign Of Raven
Artist=Nördmör
Album=Blood Of The North
Tracknumber=2
Year=2020
Genre=Black Metal



Register


Go to the top of the page
  Insert nick Quick quote
+Quote Post
 
Start new topic
Replies (1 - 4)
post Feb 20 2021, 19:55:57
Post #2

Common dweller of hell
**************
Group: Металариец
Posts: 4,013
Releases: 12
From: Dnipro
On Forums: 13 years 2 months
Thanks: 1566 time(s)
Ukraine


Кажется тут есть что послушать (IMG:style_emoticons/default/smile1.gif)
Go to the top of the page
  Insert nick Quick quote
+Quote Post
post Feb 20 2021, 20:16:49
Post #3

melofags sniper
**************
Group: Металариец
Posts: 6,346
Releases: 0
On Forums: 13 years 6 months
Thanks: 7120 time(s)
Unknown


"True Siberian Black Metal" bro
Go to the top of the page
  Insert nick Quick quote
+Quote Post
post Feb 21 2021, 11:12:35
Post #4

0%Tolerance
**********
Group: Металариец
Posts: 1,325
Releases: 0
On Forums: 9 years 1 week
Thanks: 235 time(s)
Unknown


На счёт истинного сибирского блэк митала -хз, но калька на классиков - да.
На облоге изображён истинный сибирский дровосек в одеянии, отпугивающем злобных сибирских бурундуков.



Thanks:
(1) nsk2008,
Go to the top of the page
  Insert nick Quick quote
+Quote Post
post Mar 2 2021, 12:52:37
Post #5

добрый мизантроп
**************
Group: Металариец
Posts: 2,394
Releases: 1
From: Менск
On Forums: 10 years 10 months
Thanks: 1081 time(s)
Madagascar


По вокалу Marduk. Осуждаю смешивание "siberian black metal" с шведокалькой. Хз как в блэке, но сухой сибирский брутал дэт у меня в топе. Думаю и в БМ там есть свои самобытные шедевры.


Thanks:
(1) randumbum,
Go to the top of the page
  Insert nick Quick quote
+Quote Post

Reply to this topicStart new topic
2 User(s) are reading this topic (2 Guests and 0 Anonymous Users)
0 Members:

 



- Lo-Fi Version Support form
Copyrights and abuse reports form
Time is now: 27th September 2021 - 05:04:32