Welcome Guest ( Log In | Register )

> Dauþuz & Schattenvald & Rimruna & Nemesis Sopor - Quintessenz [split] (2020), Black Metal | Black Metal | Black Metal | Black Metal (D6)(D)(D5)(D6)
post Feb 19 2021, 03:15:39
Post #1

Правь статус, ####!111
**************
Group: Металариец
Posts: 4,800
Releases: 1472
From: Brazil
On Forums: 9 years 4 months
Thanks: 55046 time(s)
Brazil


(IMG:http://metalarea.org/images/audiocovers/2021_Feb/acov_tid347534_thumb.jpg)

*Artist: Dauþuz & Schattenvald & Rimruna & Nemesis Sopor
*Album: Quintessenz [split]
*Year: 2020
*Genre: Black Metal | Black Metal | Black Metal | Black Metal
*Country: Germany (IMG:http://metalarea.org/forum/style_images/flags/Germany.png) | Germany (IMG:http://metalarea.org/forum/style_images/flags/Germany.png) | Germany (IMG:http://metalarea.org/forum/style_images/flags/Germany.png) | Germany (IMG:http://metalarea.org/forum/style_images/flags/Germany.png)
*Format: mp3@CBR320kbps
*Size: 112MB

Tracklist:
Dauþuz:
1. Erþæ 08:57
Rimruna:
2. Winterreigen 14:04
Schattenvald:
3. Wenn der Blutdunst von den Zinnen weht 13:12
Nemesis Sopor:
4. Demiurg 11:21
******************************
Total playing time: 47:34




Extended info
Our take on the classical notion of the four elements, with every band telling a tale that is connected to a specific element.

Vinyl released by Schattenpfade.


Technical info
(IMG:http://metalarea.org/images/spectrogram/2021_Feb/09414879183da3c5e7c7f4a07d41ce3a.png)
Input File: 1. Dauþuz - Erþæ.mp3
Channels : 2
Sample Rate : 44100
Precision : 16-bit
Duration : 00:08:52.09 = 23465213 samples = 39906.8 CDDA sectors
File Size : 22.0M
Bit Rate : 331k
Sample Encoding: MPEG audio (layer I, II or III)
Comments :
Title=Erþæ
Artist=Dauþuz
Album=Quintessenz
Tracknumber=1
Year=2020



Register


Go to the top of the page
  Insert nick Quick quote
+Quote Post
 
Start new topic
Replies (1 - 2)
post Feb 19 2021, 05:45:37
Post #2

Group Icon
Group: S-moderation team
Posts: 21,178
Releases: 1443
From: Zagreb
On Forums: 10 years 3 months
Thanks: 97645 time(s)
Croatia


QUOTE(varlam4 @ Feb 19 2021, 05:37:41) *
Другой обменник плз
Register



Go to the top of the page
  Insert nick Quick quote
+Quote Post
post Mar 3 2021, 07:51:53
Post #3

добрый мизантроп
**************
Group: Металариец
Posts: 2,251
Releases: 1
From: Минск
On Forums: 10 years 7 months
Thanks: 1044 time(s)
Madagascar


(IMG:style_emoticons/default/20.gif) (IMG:style_emoticons/default/20.gif) (IMG:style_emoticons/default/true_black.gif)
Go to the top of the page
  Insert nick Quick quote
+Quote Post

Reply to this topicStart new topic
2 User(s) are reading this topic (2 Guests and 0 Anonymous Users)
0 Members:

 



- Lo-Fi Version Support form
Copyrights and abuse reports form
Time is now: 23rd June 2021 - 19:36:20