Welcome Guest ( Log In | Register )

> Abythic - Dominion Of The Wicked (2021), Death Metal (D4)
post Feb 19 2021, 12:44:04
Post #1

Правь статус, ####!616
**************
Group: Металариец
Posts: 6,931
Releases: 5384
From: 55°35’N 38°08’E
On Forums: 13 years 2 months
Thanks: 98676 time(s)
Unknown


(IMG:https://metalarea.org/images/audiocovers/2021_Feb/acov_tid347558_thumb.jpg)

*Artist: Abythic
*Album: Dominion Of The Wicked
*Year: 2021
*Genre: Death Metal
*Country: Germany (IMG:https://metalarea.org/forum/style_images/flags/Germany.png)
*Format: mp3@CBR320kbps
*Size: 81MB

Tracklist:
1.At The Treshold Of Obscurity 14:41
2.The Call 08:52
3.Endless Tides 05:53
4.Augury Of The Doomed 05:27
******************************
Total playing time: 34:53




Technical info
(IMG:https://metalarea.org/images/spectrogram/2021_Feb/1c316d9f31dfd11817cd4f155dae10e3.png)
Input File: 01 At The Treshold Of Obscurity.mp3
Channels : 2
Sample Rate : 44100
Precision : 16-bit
Duration : 00:14:41.92 = 38892628 samples = 66143.9 CDDA sectors
File Size : 35.4M
Bit Rate : 321k
Sample Encoding: MPEG audio (layer I, II or III)
Comments :
Title=At The Treshold Of Obscurity
Artist=Abythic
Album=Dominion Of The Wicked
Tracknumber=1
Year=2021
Genre=Death Metal



Register


Go to the top of the page
  Insert nick Quick quote
+Quote Post
 
Start new topic
Replies (1 - 1)
post Mar 5 2021, 07:18:03
Post #2

добрый мизантроп
**************
Group: Металариец
Posts: 2,368
Releases: 1
From: Менск
On Forums: 10 years 10 months
Thanks: 1075 time(s)
Madagascar


Its Doom-Death Metal (IMG:style_emoticons/default/genius.gif)


Thanks:
Go to the top of the page
  Insert nick Quick quote
+Quote Post

Reply to this topicStart new topic
2 User(s) are reading this topic (2 Guests and 0 Anonymous Users)
0 Members:

 



- Lo-Fi Version Support form
Copyrights and abuse reports form
Time is now: 19th September 2021 - 17:57:37