Welcome Guest ( Log In | Register )

> Mindfar - Prophet Of The Astral Gods (2021), Progressive/Symphonic Power Metal
post Feb 21 2021, 13:40:11
Post #1

MDM-Thrash Metal
**************
Group: Металариец
Posts: 10,317
Releases: 1226
From: Одесса
On Forums: 13 years 9 months
Thanks: 30035 time(s)
Ukraine


(IMG:http://metalarea.org/images/audiocovers/2021_Feb/acov_tid347645_thumb.jpg)

*Artist: Mindfar
*Album: Prophet Of The Astral Gods
*Year: 2021
*Genre: Progressive/Symphonic Power Metal
*Country: Italy (IMG:http://metalarea.org/forum/style_images/flags/Italy.png)
*Format: mp3@CBR320kbps
*Size: 151MB

Tracklist:
1. Intro – Civilization Gift
2. Keeper of Your Destiny
3. The Eye of Ra
4. Heroes and Wonders
5. One Prophet
6. Sent from the Stars
7. Walls
8. Beyond the Edge of the World
9. Revolution
10. Rapsodia
11. Spirits of War
12. Ascended to Divinity
******************************
Total playing time: 1:01:59

(IMG:http://metalarea.org/images/youtube.png)


Extended info
Armando De Angelis All instruments (2017-present), Lyrics (2017-present)
See also: Ghost City


Technical info
(IMG:http://metalarea.org/images/spectrogram/2021_Feb/6294279925127c4bd440565491cf59e2.png)
Input File: 02 - Keeper Of Your Destiny.mp3
Channels : 2
Sample Rate : 44100
Precision : 16-bit
Duration : 00:05:03.32 = 13376588 samples = 22749.3 CDDA sectors
File Size : 12.1M
Bit Rate : 320k
Sample Encoding: MPEG audio (layer I, II or III)
Comments :
Title=Keeper Of Your Destiny
Artist=Mindfar
Album=Prophet Of The Astral Gods
Tracknumber=2
Year=2021



Register


Go to the top of the page
  Insert nick Quick quote
+Quote Post
 
Start new topic
Replies (1 - 2)
post Mar 8 2021, 03:48:13
Post #2

Правь статус, ####!111
**************
Group: Металариец
Posts: 2,607
Releases: 43
From: Nakhodka
On Forums: 10 years 11 months
Thanks: 2480 time(s)
Russian Federation


В целом неплохо. Чем-то Royal Hunt напоминает.
Go to the top of the page
  Insert nick Quick quote
+Quote Post
post Apr 8 2021, 23:29:30
Post #3

Пять Литров
*****
Group: Металариец
Posts: 426
Releases: 0
From: Москва
On Forums: 14 years 6 months
Thanks: 100 time(s)
Russian Federation


Добротный мелодичный симфопауэр, можно переслушивать неоднократно. Хоровые моменты удались особенно.
Go to the top of the page
  Insert nick Quick quote
+Quote Post

Reply to this topicStart new topic
1 User(s) are reading this topic (1 Guests and 0 Anonymous Users)
0 Members:

 



- Lo-Fi Version Support form
Copyrights and abuse reports form
Time is now: 13th May 2021 - 04:39:53