Welcome Guest ( Log In | Register )

> Taakeferd - Mitt Septer For Et Tusenårsrike (2020), Black Metal (D)
post Feb 21 2021, 18:07:48
Post #1

Правь статус, ####!111
**************
Group: Металариец
Posts: 27,729
Releases: 20167
From: Г.Харьков
On Forums: 9 years 5 months
Thanks: 408175 time(s)
Unknown


(IMG:https://metalarea.org/images/audiocovers/2021_Feb/acov_tid347661_thumb.jpg)

*Artist: Taakeferd
*Album: Mitt Septer For Et Tusenårsrike
*Year: 2020
*Genre: Black Metal
*Country: Norway (IMG:https://metalarea.org/forum/style_images/flags/Norway.png)
*Format: mp3@CBR320kbps
*Size: 98MB

Tracklist:
1. Mitt septer for et tusenårsrike
2. Livets Lenker
3. A Moniker of Time
4. Ørkenfødsel
5. Skepsis vær mitt våpen
6. Mett av dage
7. Sminket i aske
8. Kunnskapens triangel - Del II
9. Sørger over sine
******************************
Total playing time: 38:27





Extended info
Horisont Bass
See also: ex-Nordvrede
Kvide Guitars
Forsite Guitars (rhythm), Vocals (backing)
Svulst Vocals
Skral Drums (2014-present)
See also: ex-Stillhet


Technical info
(IMG:https://metalarea.org/images/spectrogram/2021_Feb/a209b03144834178b704818efdb44c09.png)
Input File: 08 Kunnskapens triangel - del II.mp3
Channels : 2
Sample Rate : 44100
Precision : 16-bit
Duration : 00:05:13.15 = 13809783 samples = 23486 CDDA sectors
File Size : 13.6M
Bit Rate : 346k
Sample Encoding: MPEG audio (layer I, II or III)
Comments :
Title=Kunnskapens triangel - del II
Artist=Taakeferd
Album=Mitt Septer for Et Tusenårsrike
Tracknumber=8/9
Year=2020-21-20
Genre=Metal
Discnumber=1/1



Register


Go to the top of the page
  Insert nick Quick quote
+Quote Post
 
Start new topic
Replies (1 - 3)
post Feb 22 2021, 09:00:45
Post #2

Common dweller of hell
**************
Group: Металариец
Posts: 4,056
Releases: 12
From: Dnipro
On Forums: 13 years 3 months
Thanks: 1582 time(s)
Ukraine


Это серьезные мужики, в 2012 году выдали отличный альбом, даже на виниле брал его, послушаем что навояли в этот раз.

Go to the top of the page
  Insert nick Quick quote
+Quote Post
post Feb 22 2021, 20:48:22
Post #3

Пять Литров
*****
Group: Металариец
Posts: 414
Releases: 0
On Forums: 12 years 9 months
Thanks: 325 time(s)
Brazil


Ничего примечательного.


Thanks:
(1) Brann,
Go to the top of the page
  Insert nick Quick quote
+Quote Post
post Feb 23 2021, 13:25:27
Post #4

A Forgotten Dream
**************
Group: Металариец
Posts: 6,711
Releases: 8
On Forums: 11 years 11 months
Thanks: 3175 time(s)
Unknown


Превью неплохо звучит...

... по факту - простенько, среднестатистически. даже до конца не дотянул..
Go to the top of the page
  Insert nick Quick quote
+Quote Post

Reply to this topicStart new topic
1 User(s) are reading this topic (1 Guests and 0 Anonymous Users)
0 Members:

 



- Lo-Fi Version Support form
Copyrights and abuse reports form
Time is now: 23rd October 2021 - 21:29:06