Welcome Guest ( Log In | Register )

> И неформату есть предел.

Рэп/хип-хоп/шансон/поп удаляются. Для них есть свои порталы.

> Rob Zombie - The Lunar Injection Kool Aid Eclipse Conspiracy (2021), Industrial Metal (D12)
post Feb 22 2021, 18:46:10
Post #1

MDM-Thrash Metal
**************
Group: Металариец
Posts: 10,496
Releases: 1268
From: Одесса
On Forums: 13 years 11 months
Thanks: 30782 time(s)
Ukraine


(IMG:http://metalarea.org/images/audiocovers/2021_Feb/acov_tid347702_thumb.jpg)

*Artist: Rob Zombie
*Album: The Lunar Injection Kool Aid Eclipse Conspiracy
*Year: 2021
*Genre: Industrial Metal
*Country: United States (IMG:http://metalarea.org/forum/style_images/flags/United%20States.png)
*Format: mp3@CBR320kbps
*Size: 96MB

Tracklist:
01. Expanding the Head of Zed
02. The Triumph of King Freak (A Crypt of Preservation and Superstition)
03. The Ballad of Sleazy Rider
04. Hovering over the Dull Earth
05. Shadow of the Cemetery Man
06. A Brief Static Hum and Then the Radio Blared
07. 18Th Century Cannibals, Excitable Morlocks and a One-Way Ticket on the Ghost Train
08. The Eternal Struggles of the Howling Man
09. The Much Talked Of Metamorphosis
10. The Satanic Rites of Blacula
11. Shower of Stones
12. Shake Your Ass-Smoke Your Grass
13. Boom-Boom-Boom
14. What You Gonna Do with That Gun Mama?
15. Get Loose
16. The Serenity of Witches
17. Crow Killer Blues
******************************
Total playing time: 41:50


(IMG:http://metalarea.org/images/youtube.png)
(IMG:http://metalarea.org/images/youtube.png)

Technical info
(IMG:http://metalarea.org/images/spectrogram/2021_Feb/6190077a50c6661cf33fb9c8314577ae.png)
Input File: 02. The Triumph Of King Freak (A Crypt Of Preservation & Superstition).mp3
Channels : 2
Sample Rate : 44100
Precision : 16-bit
Duration : 00:04:07.11 = 10897331 samples = 18532.9 CDDA sectors
File Size : 9.89M
Bit Rate : 320k
Sample Encoding: MPEG audio (layer I, II or III)
Comments :
Title=The Triumph Of King Freak (A Crypt Of Preservation & Superstition)
Artist=Rob Zombie
Album=The Lunar Injection Kool Aid Eclipse Conspiracy
Tracknumber=02/17
Year=2021
Discnumber=1/1



Register


Go to the top of the page
  Insert nick Quick quote
+Quote Post
 
Start new topic
Replies (1 - 3)
post Feb 23 2021, 16:38:24
Post #2

Правь статус, ####!111
**************
Group: Металариец
Posts: 49,018
Releases: 848
On Forums: 12 years 1 month
Thanks: 44065 time(s)
Russian Federation


Андрей, спасибо. Благодаря увиденному анонсу в модерке, оперативно утянул с трэкера сей долгожданный релиз.

По сабжу - ждал больше хитов, больше запоминающихся трэков. Но Зомбятский в этот раз скромненько выдал. На полноценный хит здесь тянет лишь The Triumph of King Freak (A Crypt of Preservation and Superstition). Помимо этого трэка, неплохи Get Loose и балладо-образная Crow Killer Blues. В остальном - серовато.


Thanks:
Go to the top of the page
  Insert nick Quick quote
+Quote Post
post Feb 24 2021, 19:53:29
Post #3

А чо я то?!
*****
Group: Металариец
Posts: 457
Releases: 1
On Forums: 14 years 5 months
Thanks: 75 time(s)
Uruguay


Ссыль то битая (IMG:style_emoticons/default/14.gif)
Go to the top of the page
  Insert nick Quick quote
+Quote Post
post Feb 26 2021, 22:20:35
Post #4

Два Литра
**
Group: Завсегдатай
Posts: 158
Releases: 0
On Forums: 2 years 8 months
Thanks: 111 time(s)
Russian Federation


Register


Go to the top of the page
  Insert nick Quick quote
+Quote Post

Reply to this topicStart new topic
1 User(s) are reading this topic (1 Guests and 0 Anonymous Users)
0 Members:

 



- Lo-Fi Version Support form
Copyrights and abuse reports form
Time is now: 31st July 2021 - 10:36:35