Welcome Guest ( Log In | Register )

> И неформату есть предел.

Рэп/хип-хоп/шансон/поп удаляются. Для них есть свои порталы.

> Trepaneringsritualen - Kainskult Remixed [ep] (2021), Techno/Industrial (D18)
post Feb 24 2021, 19:46:58
Post #1

Шесть Литров
******
Group: Металариец
Posts: 661
Releases: 32
From: Санкт-Петербург
On Forums: 14 years 11 months
Thanks: 2109 time(s)
Russian Federation


(IMG:http://metalarea.org/images/audiocovers/2021_Feb/acov_tid347777_thumb.jpg)

*Artist: Trepaneringsritualen
*Album: Kainskult Remixed [ep]
*Year: 2021
*Genre: Techno/Industrial
*Country: Sweden (IMG:http://metalarea.org/forum/style_images/flags/Sweden.png)
*Format: mp3@CBR320kbps
*Size: 54MB

Tracklist:
01. Feral Me (Codex Empire Remix) 05:11
02. ᚲ ∴ ᚲ ∴ ᚲ (Pact Infernal Remix) 06:30
03. Serpent Seed (Ancient Methods Remix) 06:37
04. V ∴ V ∴ V (Headless Horseman Remix) 04:44
******************************
Total playing time: 23:02





Technical info
(IMG:http://metalarea.org/images/spectrogram/2021_Feb/1ff50682af7b6a89e1a8970f09cc5c53.png)
Input File: 01 - Feral Me (Codex Empire Remix).mp3
Channels : 2
Sample Rate : 44100
Precision : 16-bit
Duration : 00:00:00.31 = 13715 samples = 23.3248 CDDA sectors
File Size : 12.5M
Bit Rate : 320M
Sample Encoding: MPEG audio (layer I, II or III)
Comments :
Title=Feral Me (Codex Empire Remix)
Artist=Trepaneringsritualen
Album=Kainskult Remixed (EP)
Tracknumber=01
Year=2021
Genre=Techno/Industrial



Register


Go to the top of the page
  Insert nick Quick quote
+Quote Post
 
Start new topic
Replies (1 - 1)
post Feb 28 2021, 13:29:42
Post #2

Beherit and becherovka
**************
Group: Металариец
Posts: 2,846
Releases: 67
On Forums: 3 years 2 months
Thanks: 3401 time(s)
Russian Federation


FLAC
Register


mp3 320 LAME3.100
Register



Thanks:
(1) as71,
Go to the top of the page
  Insert nick Quick quote
+Quote Post

Reply to this topicStart new topic
1 User(s) are reading this topic (1 Guests and 0 Anonymous Users)
0 Members:

 



- Lo-Fi Version Support form
Copyrights and abuse reports form
Time is now: 18th April 2021 - 22:25:50