Welcome Guest ( Log In | Register )

> Icewind - Midnight Bloody Dances (2021), Melodic Black Metal
post Feb 24 2021, 23:00:40
Post #1

Правь статус, ####!111
**************
Group: Металариец
Posts: 26,729
Releases: 19290
From: Г.Харьков
On Forums: 9 years 2 months
Thanks: 386131 time(s)
Unknown


(IMG:https://metalarea.org/images/audiocovers/2021_Feb/acov_tid347787_thumb.jpg)

*Artist: Icewind
*Album: Midnight Bloody Dances
*Year: 2021
*Genre: Melodic Black Metal
*Country: Kyrgyzstan (IMG:https://metalarea.org/forum/style_images/flags/Kyrgyzstan.png)
*Format: mp3@CBR320kbps
*Size: 109MB

Tracklist:
1. Mysterious Paths
2. The Call Of Full Moon
3. Drink My Blood
4. Wolf Trail
5. Sacrifice
6. Spirit Of The Dead Swamps
7. Descendants Of Dagon
8. Apocalypse
9. Night Eternal
10. Queen Of The Forest
11. Warlock
******************************
Total playing time: 48:16

Preview 1
(IMG:https://metalarea.org/images/youtube.png)

Extended info
Vocal - Demether Grail (Zmey Gorynich,Arcanorum Astrum,Grailight,Skylord,Изморозь),Aina Tornheim (Blackthorn)


Technical info
(IMG:https://metalarea.org/images/spectrogram/2021_Feb/940994ba326abb391b6987bf45b97738.png)
Input File: 07 - Descendants of Dagon.mp3
Channels : 2
Sample Rate : 44100
Precision : 16-bit
Duration : 00:05:39.53 = 14973141 samples = 25464.5 CDDA sectors
File Size : 13.6M
Bit Rate : 320k
Sample Encoding: MPEG audio (layer I, II or III)
Comments :
Title=Descendants of Dagon
Artist=Icewind
Album=Midnight Bloody Dances
Tracknumber=7
Year=2021
Genre=Black Metal



Register


Go to the top of the page
  Insert nick Quick quote
+Quote Post
 
Start new topic
Replies (1 - 4)
post Mar 1 2021, 23:18:00
Post #2

Шесть Литров
******
Group: Металариец
Posts: 501
Releases: 0
From: Москва
On Forums: 14 years 9 months
Thanks: 111 time(s)
Russian Federation


Ничем не примечательный, кроме страны происхождения, блэк.


Thanks:
Go to the top of the page
  Insert nick Quick quote
+Quote Post
post Apr 3 2021, 05:20:08
Post #3

Ъ
**************
Group: Металариец
Posts: 10,678
Releases: 9
On Forums: 12 years 6 months
Thanks: 2177 time(s)
Sweden


Третьесорт, послушать можно, но я осилил только до апокалипсиса.
Go to the top of the page
  Insert nick Quick quote
+Quote Post
post Apr 5 2021, 08:08:30
Post #4

brutalcesar
**************
Group: Металариец
Posts: 18,233
Releases: 71
From: Рязань
On Forums: 12 years 6 months
Thanks: 10289 time(s)
Russian Federation


ЦИТАТА(Сварог Барг @ Mar 2 2021, 01:18:00) *
Ничем не примечательный, кроме страны происхождения, блэк.

Вообщем-то так
Go to the top of the page
  Insert nick Quick quote
+Quote Post
post Apr 16 2021, 09:26:03
Post #5

Правь статус, ####!111
**************
Group: Металариец
Posts: 5,001
Releases: 441
From: MoscoW
On Forums: 14 years 7 months
Thanks: 7254 time(s)
Russian Federation


Go to the top of the page
  Insert nick Quick quote
+Quote Post

Reply to this topicStart new topic
2 User(s) are reading this topic (2 Guests and 0 Anonymous Users)
0 Members:

 



- Lo-Fi Version Support form
Copyrights and abuse reports form
Time is now: 1st August 2021 - 11:58:19