Welcome Guest ( Log In | Register )

> Fallensun - The Wake Of The Fall (2021), Melodic Death Metal
post Feb 25 2021, 07:23:06
Post #1

MDM-Thrash Metal
**************
Group: Металариец
Posts: 12,269
Releases: 1716
From: Одесса
On Forums: 16 years 6 months
Thanks: 39952 time(s)
Ukraine


(IMG:http://metalarea.org/images/audiocovers/2021_Feb/acov_tid347799_thumb.jpg)

*Artist: Fallensun
*Album: The Wake Of The Fall
*Year: 2021
*Genre: Melodic Death Metal
*Country: Canada (IMG:http://metalarea.org/forum/style_images/flags/Canada.png)
*Format: mp3@CBR320kbps
*Size: 78MB

Tracklist:
1. Enervation
2. The Language, Death, Eternal
3. The Wake of the Fall
4. Searching the Darkened Skies
5. Beyond the Grave
6. Invisible Light
******************************
Total playing time: 34:14


(IMG:http://metalarea.org/images/youtube.png)

Technical info
(IMG:http://metalarea.org/images/spectrogram/2021_Feb/3300f18d30ccca0c7c00ae383cbf5c80.png)
Input File: 02 - The Language, Death, Eternal.mp3
Channels : 2
Sample Rate : 44100
Precision : 16-bit
Duration : 00:09:12.21 = 24352285 samples = 41415.5 CDDA sectors
File Size : 22.1M
Bit Rate : 320k
Sample Encoding: MPEG audio (layer I, II or III)
Comments :
Title=The Language, Death, Eternal
Artist=Fallensun
Album=The Wake of the Fall
Tracknumber=2
Year=2021



Register


Go to the top of the page
  Insert nick Quick quote
+Quote Post
 
Start new topic
Replies (1 - 6)
post Feb 25 2021, 18:24:38
Post #2

Тридцать три года на борту "тяжёлого" крейсера
**************
Group: Металариец
Posts: 3,114
Releases: 0
From: Питер
On Forums: 16 years 8 months
Thanks: 987 time(s)
Russian Federation


с натяжкой melodic
посредственная риффоческа
Go to the top of the page
  Insert nick Quick quote
+Quote Post
post Feb 26 2021, 11:19:01
Post #3

hearer & reader
**************
Group: Металариец
Posts: 10,860
Releases: 233
From: Moscow
On Forums: 16 years 5 months
Thanks: 13559 time(s)
Russian Federation


https://music.yandex.ru/album/13740054
Go to the top of the page
  Insert nick Quick quote
+Quote Post
post Feb 28 2021, 10:29:09
Post #4

Common dweller of hell
**************
Group: Металариец
Posts: 5,256
Releases: 12
From: Dnipro
On Forums: 15 years 7 months
Thanks: 2125 time(s)
Ukraine


Blackened Melodic Death Metal



Thanks:
(1) lldma,
Go to the top of the page
  Insert nick Quick quote
+Quote Post
post Feb 28 2021, 18:49:39
Post #5

Маньяк
**********
Group: Металариец
Posts: 1,121
Releases: 4
From: Харьков
On Forums: 15 years 6 months
Thanks: 416 time(s)
Ukraine


и еще


Thanks:
(1) Vladimir,
Go to the top of the page
  Insert nick Quick quote
+Quote Post
post Mar 9 2021, 12:25:34
Post #6

Ъ
**************
Group: Металариец
Posts: 11,214
Releases: 9
On Forums: 15 years 1 month
Thanks: 2274 time(s)
Sweden


Третьесорт, на раз послушать норм.
Go to the top of the page
  Insert nick Quick quote
+Quote Post
post Aug 27 2021, 07:41:40
Post #7

Group: Подсевший
Posts: 19
Releases: 0
From: Croatia
On Forums: 17 years 5 months
Thanks: 21 time(s)
Russian Federation


Album link -
Register
Go to the top of the page
  Insert nick Quick quote
+Quote Post

Reply to this topicStart new topic
2 User(s) are reading this topic (2 Guests and 0 Anonymous Users)
0 Members:

 



- Lo-Fi Version Support form
Copyrights and abuse reports form
Time is now: 3rd March 2024 - 07:49:24