Welcome Guest ( Log In | Register )

> Ominous Ruin - Amidst Voices That Echo In Stone (2021), Technical Brutal Death Metal (D4)
post Feb 25 2021, 08:08:09
Post #1

Правь статус, ####!111
**************
Group: Металариец
Posts: 4,066
Releases: 3722
From: Одесса
On Forums: 13 years 1 week
Thanks: 40375 time(s)
Ukraine


(IMG:http://metalarea.org/images/audiocovers/2021_Feb/acov_tid347802_thumb.jpg)

*Artist: Ominous Ruin
*Album: Amidst Voices That Echo In Stone
*Year: 2021
*Genre: Technical Brutal Death Metal
*Country: United States (IMG:http://metalarea.org/forum/style_images/flags/United%20States.png)
*Format: mp3@CBR320kbps
*Size: 107MB

Tracklist:
1. Ritual 03:46
2. Attuned to the Chasm 04:20
3. Deception 06:15
4. Chrysalis of Flesh 04:29
5. A Feast for Shadows 02:56
6. Labyrinthine Torment 07:01
7. Consumed 05:20
8. Simulacra 06:15
9. Amidst Voices that Echo in Stone 04:58
******************************
Total playing time: 45:20



Extended info
Line - up:
Mitch Yoesle - Bass (ex-Inanimate Existence)
Alex Bacey - Guitars (Tegmentum)
Adam Rosado - Vocals (Leprous Divinity)
Petr Oplatka - Guitars (Enigma, Illucinus, ex-Stillborn Portrait)

Guest/Session:
Andrew Baird - Drums (Fallujah, Muldrotha)
Jade Ordonez - Vocals (track 3) (Arcane Existence, Deliria)
Julian Zidarevich - Vocals (track 6)
Kris Cana - Vocals (track 4) (Symbiotic, ex-Stillborn Portrait)
Crystal Rose - Vocals

(IMG:https://www.metal-archives.com/images/3/5/4/0/3540397429_photo.jpg?4258)


Technical info
(IMG:http://metalarea.org/images/spectrogram/2021_Feb/ed0523264aa47dcdaf55e07b063eb0a0.png)
Input File: 07. Consumed.mp3
Channels : 2
Sample Rate : 44100
Precision : 16-bit
Duration : 00:05:20.05 = 14114073 samples = 24003.5 CDDA sectors
File Size : 12.8M
Bit Rate : 320k
Sample Encoding: MPEG audio (layer I, II or III)
Comments :
Title=Consumed
Artist=Ominous Ruin
Album=Amidst Voices That Echo In Stone
Tracknumber=7
Year=2021
Genre=Technical Brutal Death Metal



Register


Go to the top of the page
  Insert nick Quick quote
+Quote Post
 
Start new topic
Replies (1 - 3)
post Feb 27 2021, 11:20:39
Post #2

Маньяк
**********
Group: Металариец
Posts: 1,027
Releases: 1
From: APATIN, SERBIA, АПАТИН, СЕРБИЯ
On Forums: 13 years 7 months
Thanks: 2242 time(s)



Flac

Register


Thanks:
Go to the top of the page
  Insert nick Quick quote
+Quote Post
post Feb 27 2021, 20:17:57
Post #3

Мегаманьяк
***********
Group: Металариец
Posts: 1,952
Releases: 0
On Forums: 12 years 3 months
Thanks: 813 time(s)
Antarctica


Сыграно качественно, хотя таким уровнем сейчас никого не удивишь. Материал тоже оригинальностью не блещет. Крепкий середнячок, в общем. 6/10
Go to the top of the page
  Insert nick Quick quote
+Quote Post
post Jun 10 2021, 23:42:58
Post #4

Правь статус, ####!111
**************
Group: Металариец
Posts: 2,472
Releases: 0
On Forums: 6 years 1 month
Thanks: 3153 time(s)
Russian Federation


Из сети, 320
Register


Thanks:
(1) samokot,
Go to the top of the page
  Insert nick Quick quote
+Quote Post

Reply to this topicStart new topic
1 User(s) are reading this topic (1 Guests and 0 Anonymous Users)
0 Members:

 



- Lo-Fi Version Support form
Copyrights and abuse reports form
Time is now: 14th June 2021 - 22:31:28