Welcome Guest ( Log In | Register )

> Savior Of Death - A War Between Worlds (2021), Melodic Death Metal
post Feb 26 2021, 12:49:13
Post #1

MDM-Thrash Metal
**************
Group: Металариец
Posts: 10,327
Releases: 1226
From: Одесса
On Forums: 13 years 9 months
Thanks: 30054 time(s)
Ukraine


(IMG:http://metalarea.org/images/audiocovers/2021_Feb/acov_tid347868_thumb.jpg)

*Artist: Savior Of Death
*Album: A War Between Worlds
*Year: 2021
*Genre: Melodic Death Metal
*Country: Germany (IMG:http://metalarea.org/forum/style_images/flags/Germany.png)
*Format: mp3@CBR320kbps
*Size: 146MB

Tracklist:
1. Curtain Call 05:43
2. Messiah 05:25
3. Face to Face 03:40
4. Wisdom of the Weak 03:46
5. Mask of Death 04:22
6. Bleed 04:48
7. Hellgate 06:23
8. Paradise Inc. 03:29
9. Insanity 05:3)
10. Colossus 07:14
11. Into the Fire 04:32
12. Before you die 04:47
13. Stay heavy! 04:25
******************************
Total playing time: 58:34


(IMG:http://metalarea.org/images/youtube.png)

Technical info
(IMG:http://metalarea.org/images/spectrogram/2021_Feb/54c0a8d7f62ba26e7c5f206db90f2fca.png)
Input File: 02 - Messiah.mp3
Channels : 2
Sample Rate : 44100
Precision : 16-bit
Duration : 00:05:25.56 = 14356976 samples = 24416.6 CDDA sectors
File Size : 13.0M
Bit Rate : 320k
Sample Encoding: MPEG audio (layer I, II or III)
Comments :
Title=Messiah
Artist=Savior of Death
Album=A War between Worlds
Tracknumber=2
Year=2021



Register


Go to the top of the page
  Insert nick Quick quote
+Quote Post
 
Start new topic
Replies (1 - 2)
post Feb 27 2021, 08:08:36
Post #2

hearer & reader
**************
Group: Металариец
Posts: 9,666
Releases: 172
From: Moscow
On Forums: 13 years 8 months
Thanks: 10737 time(s)
Russian Federation


ЦИТАТА
Savior of Death is a metal project by Lars van Uden. It aims to combine melodic death metal with elements from subgenres like metal-core, thrash & power metal. Does anyone even read this? Just listen to the music, lol. The project was founded as a punk-rock band in 2004 and changed its style to metal in 2007. The band around composer & vocalist Lars split up in 2016, making it a studio project for now.
Go to the top of the page
  Insert nick Quick quote
+Quote Post
post Apr 7 2021, 13:57:24
Post #3

Пять Литров
*****
Group: Металариец
Posts: 429
Releases: 0
From: Москва
On Forums: 14 years 6 months
Thanks: 100 time(s)
Russian Federation


На удивление хорошего качества материал, пусть и не чистый мелодэт, сонграйтинг на уровне и запись не подкачала. Оставил в коллекцию.
Go to the top of the page
  Insert nick Quick quote
+Quote Post

Reply to this topicStart new topic
1 User(s) are reading this topic (1 Guests and 0 Anonymous Users)
0 Members:

 



- Lo-Fi Version Support form
Copyrights and abuse reports form
Time is now: 16th May 2021 - 19:49:45