Welcome Guest ( Log In | Register )

> Los Males Del Mundo - Descent Towards Death (2021), Atmospheric Black Metal
post Feb 26 2021, 17:13:16
Post #1

Правь статус, ####!616
**************
Group: Металариец
Posts: 6,424
Releases: 4901
From: 55°35’N 38°08’E
On Forums: 12 years 11 months
Thanks: 90574 time(s)
Unknown


(IMG:https://metalarea.org/images/audiocovers/2021_Feb/acov_tid347879_thumb.jpg)

*Artist: Los Males Del Mundo
*Album: Descent Towards Death
*Year: 2021
*Genre: Atmospheric Black Metal
*Country: Argentina (IMG:https://metalarea.org/forum/style_images/flags/Argentina.png)
*Format: mp3@CBR320kbps
*Size: 94MB

Tracklist:
1.Falling Into Nothing 12:12
2.The Silent Agony 08:28
3.Eternal Circle of Vain Efforts 05:16
4.Nothing but a Lie 04:56
5.The Heavy Burden 10:00
******************************
Total playing time: 40:52




Technical info
(IMG:https://metalarea.org/images/spectrogram/2021_Feb/99266be0f758dfc0b1e706d29ba39ebf.png)
Input File: 01 Falling Into Nothing.mp3
Channels : 2
Sample Rate : 44100
Precision : 16-bit
Duration : 00:12:12.88 = 32320140 samples = 54966.2 CDDA sectors
File Size : 29.4M
Bit Rate : 321k
Sample Encoding: MPEG audio (layer I, II or III)
Comments :
Title=Falling Into Nothing
Artist=Los Males Del Mundo
Album=Descent Towards Death
Tracknumber=1
Year=2021
Genre=Black Metal



Register

Register


Go to the top of the page
  Insert nick Quick quote
+Quote Post
 
Start new topic
Replies (1 - 6)
post Feb 27 2021, 01:46:39
Post #2

\m/
Group Icon
Group: S-moderation team
Posts: 7,932
Releases: 19
From: Петропавловск-Камчатский
On Forums: 12 years 1 week
Thanks: 7985 time(s)
Russian Federation


Added links by Samaritianin


Go to the top of the page
  Insert nick Quick quote
+Quote Post
post Feb 27 2021, 23:04:16
Post #3

Epic Atmospheric Member
**************
Group: Металариец
Posts: 2,087
Releases: 163
From: Deadwood
On Forums: 13 years 10 months
Thanks: 4154 time(s)
Georgia


Out of blue absolutely blew my mind, what an album!
Go to the top of the page
  Insert nick Quick quote
+Quote Post
post Feb 28 2021, 11:22:48
Post #4

Литр
*
Group: Подсевший
Posts: 66
Releases: 38
From: france
On Forums: 12 years 10 months
Thanks: 603 time(s)
France


Fuck...This album is amazing...Great Modern Black Metal with voices beetween Cradle and Mgla...Great very great Thx!
Go to the top of the page
  Insert nick Quick quote
+Quote Post
post Mar 2 2021, 13:57:04
Post #5

Common dweller of hell
**************
Group: Металариец
Posts: 3,829
Releases: 12
From: Dnipro
On Forums: 12 years 11 months
Thanks: 1509 time(s)
Ukraine


FLAC??? (IMG:style_emoticons/default/pray.gif)
Go to the top of the page
  Insert nick Quick quote
+Quote Post
post Mar 6 2021, 14:35:30
Post #6

Три Литра
***
Group: Завсегдатай
Posts: 206
Releases: 0
From: TheМля
On Forums: 14 years 9 months
Thanks: 66 time(s)
Belarus


Понравилось. Местами даже просто красивая музыка.
Go to the top of the page
  Insert nick Quick quote
+Quote Post
post Mar 6 2021, 15:08:22
Post #7

Шесть Литров
******
Group: Металариец
Posts: 549
Releases: 0
From: Лыткарино
On Forums: 2 years 1 month
Thanks: 139 time(s)
Russian Federation


Мимоходом, как грится. Неплохо, но и не цепляет.
Go to the top of the page
  Insert nick Quick quote
+Quote Post

Reply to this topicStart new topic
2 User(s) are reading this topic (2 Guests and 0 Anonymous Users)
0 Members:

 



- Lo-Fi Version Support form
Copyrights and abuse reports form
Time is now: 25th June 2021 - 12:13:44