Welcome Guest ( Log In | Register )

> И неформату есть предел.

Рэп/хип-хоп/шансон/поп удаляются. Для них есть свои порталы.

 
Reply to this topicStart new topic
> Bonfire - Roots (2021), Acoustic/Hard Rock (D)
post Feb 26 2021, 18:30:44
Post #1

Правь статус, ####!111
**************
Group: Металариец
Posts: 3,895
Releases: 3555
From: Одесса
On Forums: 12 years 10 months
Thanks: 37984 time(s)
Ukraine


(IMG:http://metalarea.org/images/audiocovers/2021_Feb/acov_tid347881_thumb.jpg)

*Artist: Bonfire
*Album: Roots
*Year: 2021
*Genre: Acoustic/Hard Rock
*Country: Germany (IMG:http://metalarea.org/forum/style_images/flags/Germany.png)
*Format: mp3@CBR320kbps
*Size: 245MB

Tracklist:
Disc 1
1. Starin' Eyes
2. American Nights
3. Let Me Be Your Water
4. Prince of Lovin' You
5. Comin' Home
6. Ready 4 Reaction
7. Give It a Try
8. Sleeping All Alone
9. Who's Foolin' Who
10. Why Is It Never Enough
11. Fantasy
Disc 2
12. When an Old Man Cries
13. Love Don't Lie
14. Lonely Nights
15. Under Blue Skies
16. You Make Me Feel
17. No More
18. The Devil Made Me Do It
19. Without You
20. Your Love is Heaven to Me
21. Piece of My Heart
22. Youngbloods
23. Our Hearts Don't Feel the Same
24. Wolfmen
******************************
Total playing time: 1:44:13

(IMG:http://metalarea.org/images/youtube.png)

Technical info
(IMG:http://metalarea.org/images/spectrogram/2021_Feb/4473ab8dab3891fe1dccc2f9b91d640c.png)
Input File: 02. American Nights (Almost Unplugged).mp3
Channels : 2
Sample Rate : 44100
Precision : 16-bit
Duration : 00:03:51.43 = 10206239 samples = 17357.5 CDDA sectors
File Size : 9.26M
Bit Rate : 320k
Sample Encoding: MPEG audio (layer I, II or III)
Comments :
Title=American Nights (Almost Unplugged)
Artist=Bonfire
Album=Roots
Tracknumber=2
Year=2021
Genre=17



Register


Go to the top of the page
  Insert nick Quick quote
+Quote Post

Reply to this topicStart new topic
1 User(s) are reading this topic (1 Guests and 0 Anonymous Users)
0 Members:

 



- Lo-Fi Version Support form
Copyrights and abuse reports form
Time is now: 18th April 2021 - 22:37:54