Welcome Guest ( Log In | Register )

> Blutsturm - Hate Us! [ep] (2021), Black Metal (D4)
post Feb 27 2021, 12:09:43
Post #1

Правь статус, ####!616
**************
Group: Металариец
Posts: 6,597
Releases: 5054
From: 55°35’N 38°08’E
On Forums: 13 years 2 weeks
Thanks: 93175 time(s)
Unknown


(IMG:https://metalarea.org/images/audiocovers/2021_Feb/acov_tid347907_thumb.jpg)

*Artist: Blutsturm
*Album: Hate Us! [ep]
*Year: 2021
*Genre: Black Metal
*Country: Germany (IMG:https://metalarea.org/forum/style_images/flags/Germany.png)
*Format: mp3@CBR320kbps
*Size: 53MB

Tracklist:
1.The Devil rides out 07:03
2.A Goatpenis in Nun Cunt 03:55
3.Priest Raping 05:16
4.HATE US ! 02:51
******************************
Total playing time: 19:05




Technical info
(IMG:https://metalarea.org/images/spectrogram/2021_Feb/12c3d737a2d4d22bc5162a0ed64acf2d.png)
Input File: 01. The Devil Rides Out.mp3
Channels : 2
Sample Rate : 44100
Precision : 16-bit
Duration : 00:07:03.97 = 18696945 samples = 31797.5 CDDA sectors
File Size : 17.2M
Bit Rate : 325k
Sample Encoding: MPEG audio (layer I, II or III)
Comments :
Title=The Devil Rides Out
Artist=Blutsturm
Album=HATE US !
Tracknumber=01
Year=2021
Genre=Black Metal



Register


Go to the top of the page
  Insert nick Quick quote
+Quote Post
 
Start new topic
Replies (1 - 2)
post Feb 28 2021, 14:08:54
Post #2

De Mysteriis Dom Sathanas
**************
Group: Металариец
Posts: 4,229
Releases: 63
From: Doom
On Forums: 13 years 1 week
Thanks: 3629 time(s)
Russian Federation


Облога зачетная (IMG:style_emoticons/default/9.gif)


Thanks:
Go to the top of the page
  Insert nick Quick quote
+Quote Post
post Apr 27 2021, 10:28:15
Post #3

Group Icon
Group: S-moderation team
Posts: 21,461
Releases: 1443
From: Zagreb
On Forums: 10 years 4 months
Thanks: 99537 time(s)
Croatia


Register


Go to the top of the page
  Insert nick Quick quote
+Quote Post

Reply to this topicStart new topic
2 User(s) are reading this topic (2 Guests and 0 Anonymous Users)
0 Members:

 



- Lo-Fi Version Support form
Copyrights and abuse reports form
Time is now: 24th July 2021 - 07:45:23