Welcome Guest ( Log In | Register )

> И неформату есть предел.

Рэп/хип-хоп/шансон/поп удаляются. Для них есть свои порталы.

 
Reply to this topicStart new topic
> Various Artists - Sonic Seducer: Cold Hands Seduction Vol. 224 [compilation] (2020), Various Gothic/Electro (D2217)
post Feb 27 2021, 16:21:50
Post #1

Мегаманьяк
***********
Group: Металариец
Posts: 1,736
Releases: 462
On Forums: 13 years 3 months
Thanks: 6747 time(s)
Ireland


(IMG:https://metalarea.org/images/audiocovers/2021_Feb/acov_tid347917.jpg)

*Artist: Various Artists
*Album: Sonic Seducer: Cold Hands Seduction Vol. 224 [compilation]
*Year: 2020
*Genre: Various Gothic/Electro
*Country: Many (IMG:https://metalarea.org/forum/style_images/flags/Many.png)
*Format: mp3@CBR320kbps
*Size: 142MB

Tracklist:
01. Mono Inc. - Wave No Flag (Sonic Version)
02. Placebo Effect - Down On Your Knees (Das Ich Remix)
03. ROSI - Forgotten World
04. Darzamat - A Philosopher At The End Of The Universe
05. Snow White Blood - Shared Hearts
06. Normoria - Land Of The Rich
07. Horror Vacui - Lost
08. Waldtraene - Nerthus
09. The-Dept. - Behind The Line
10. Horowitz - Komm Zu Mir
11. The Honest Rest - Despair
12. Hurtsfall - Revelator
13. Corecass - V.O.I.D. I
14. Katharina Burges - Schwarz
******************************
Total playing time: 1:03:12

Technical info
(IMG:https://metalarea.org/images/spectrogram/2021_Feb/92ab55dd28b0f47b204cf7252c88f9cd.png)
Input File: 07 Lost.mp3
Channels : 2
Sample Rate : 44100
Precision : 16-bit
Duration : 00:04:32.84 = 12032112 samples = 20462.8 CDDA sectors
File Size : 11.0M
Bit Rate : 324k
Sample Encoding: MPEG audio (layer I, II or III)
Comments :
Title=Lost
Artist=Horror Vacui
Album=Cold Hands Seduction Vol. 224
Tracknumber=07/14
Year=2020
Genre=50



Register


Go to the top of the page
  Insert nick Quick quote
+Quote Post

Reply to this topicStart new topic
1 User(s) are reading this topic (1 Guests and 0 Anonymous Users)
0 Members:

 



- Lo-Fi Version Support form
Copyrights and abuse reports form
Time is now: 31st July 2021 - 11:21:33