Welcome Guest ( Log In | Register )

> И неформату есть предел.

Рэп/хип-хоп/шансон/поп удаляются. Для них есть свои порталы.

> Love And Death - Perfectly Preserved (2021), Nu-Metal
post Mar 1 2021, 06:47:00
Post #1

ядерщик-мясогруз
****
Group: Металариец
Posts: 314
Releases: 6
On Forums: 12 years 2 months
Thanks: 208 time(s)
Russian Federation


(IMG:http://metalarea.org/images/audiocovers/2021_Mar/acov_tid347994_thumb.jpg)

*Artist: Love And Death
*Album: Perfectly Preserved
*Year: 2021
*Genre: Nu-Metal
*Country: United States (IMG:http://metalarea.org/forum/style_images/flags/United%20States.png)
*Format: mp3@CBR320kbps
*Size: 81MB

Tracklist:
1.Infamy
2.Tragedy
3.Down
4.Let Me Love You (Ft. Lacey Sturm)
5.Death of Us
6.Slow Fire
7.The Hunter (Ft. Keith Wallen)
8.Lo Lamento
9.Affliction
10.White Flag (Ft. Ryan Hayes)
******************************
Total playing time: 35:19

Youtube

Extended info
Love and Death — американская рок-группа, основанная гитаристом Korn Брайаном Уэлчем


Technical info
(IMG:http://metalarea.org/images/spectrogram/2021_Mar/4d43aded39f9c1339e84784338cb1c4a.png)
Input File: 03.Down.mp3
Channels : 2
Sample Rate : 44100
Precision : 16-bit
Duration : 00:04:00.42 = 10602566 samples = 18031.6 CDDA sectors
File Size : 9.65M
Bit Rate : 321k
Sample Encoding: MPEG audio (layer I, II or III)
Comments :
Title=Down
Artist=Love And Death
Album=Perfectly Preserved
Tracknumber=3/10
Year=2021
Genre=Alternative / Nu-Metal
Discnumber=1/1



Register


Go to the top of the page
  Insert nick Quick quote
+Quote Post
 
Start new topic
Replies (1 - 3)
post Mar 1 2021, 16:02:48
Post #2

Пять Литров
*****
Group: Металариец
Posts: 460
Releases: 0
From: Ташкент
On Forums: 13 years 2 months
Thanks: 143 time(s)
Uzbekistan


Очень хороший альбом.
Go to the top of the page
  Insert nick Quick quote
+Quote Post
post Mar 10 2021, 08:15:05
Post #3

Чёткий пацан из Автово...
Group Icon
Group: V.I.P
Posts: 9,317
Releases: 40
From: Город над вольной Невой...
On Forums: 14 years 9 months
Thanks: 4803 time(s)
Russian Federation


Один из топов года! 100%! (IMG:style_emoticons/default/smile1.gif)
Go to the top of the page
  Insert nick Quick quote
+Quote Post
post Mar 10 2021, 13:20:55
Post #4

Маньяк
**********
Group: Металариец
Posts: 1,312
Releases: 0
From: Moscow
On Forums: 13 years 5 months
Thanks: 819 time(s)
Russian Federation


Альбом нормальный, но прилично так сливает обоим предшественникам.
Go to the top of the page
  Insert nick Quick quote
+Quote Post

Reply to this topicStart new topic
1 User(s) are reading this topic (1 Guests and 0 Anonymous Users)
0 Members:

 



- Lo-Fi Version Support form
Copyrights and abuse reports form
Time is now: 18th April 2021 - 22:41:44