Welcome Guest ( Log In | Register )

> Dauthuz - Cold (2021), Old School Death Metal
post Mar 5 2021, 00:47:04
Post #1

Правь статус, ####!111
**************
Group: Металариец
Posts: 26,658
Releases: 19228
From: Г.Харьков
On Forums: 9 years 2 months
Thanks: 384102 time(s)
Unknown


(IMG:https://metalarea.org/images/audiocovers/2021_Mar/acov_tid348132_thumb.jpg)

*Artist: Dauthuz
*Album: Cold
*Year: 2021
*Genre: Old School Death Metal
*Country: Netherlands (IMG:https://metalarea.org/forum/style_images/flags/Netherlands.png)
*Format: mp3@CBR320kbps
*Size: 104MB

Tracklist:
01. The Evil Wicked Do 04:00
02. A New Dawn 02:52
03. The Dead 06:13
04. The Apocalypse 03:20
05. Cold 04:51
06. Hellborn 05:10
07. Gore 04:03
08. Termination 04:56
09. Crossfire 07:10
******************************
Total playing time: 42:35




Extended info
Tim Roeper Bass (2015-present)
See also: Eternal Solstice, ex-Dissect, ex-Funeral Whore, ex-Phlebotomized (live)
Dennis Jak Guitars (2015-present)
See also: Nembrionic, ex-Unlord, ex-Consolation, ex-Nembrionic Hammerdeath, ex-Cardinal
Hans Bijland Guitars (2015-present)
See also: Yaotzin, ex-Deity's Flesh, Arising Rebellion, ex-Violent Demise
Bas Polder Drums (2020-present)
See also: In Aetherium, RÁN, Yaotzin, ex-Ashen, ex-Necrology, ex-Perditor, ex-IO
Emiel Vocals (2020-present)
See also: ex-Cardinal



Technical info
(IMG:https://metalarea.org/images/spectrogram/2021_Mar/18608564577ea641b13399f4bcd7cb32.png)
Input File: 08 Termination.mp3
Channels : 2
Sample Rate : 44100
Precision : 16-bit
Duration : 00:04:56.24 = 13064360 samples = 22218.3 CDDA sectors
File Size : 12.6M
Bit Rate : 341k
Sample Encoding: MPEG audio (layer I, II or III)
Comments :
Title=Termination
Artist=Dauthuz
Album=Cold
Tracknumber=8/9
Year=2021-21-20
Discnumber=1/1



Register


Go to the top of the page
  Insert nick Quick quote
+Quote Post
 
Start new topic
Replies (1 - 8)
post Mar 5 2021, 01:29:36
Post #2

Правь статус, ####!111
**************
Group: Металариец
Posts: 26,658
Releases: 19228
From: Г.Харьков
On Forums: 9 years 2 months
Thanks: 384102 time(s)
Unknown


FLAC (Tracks) 312 mb
Register


Go to the top of the page
  Insert nick Quick quote
+Quote Post
post Mar 5 2021, 13:22:46
Post #3

Азъ есн Хаос
***********
Group: Металариец
Posts: 1,543
Releases: 164
From: Россия Москва
On Forums: 14 years 6 months
Thanks: 1774 time(s)
Russian Federation


По прослушке прям на тракторах на катках по буеракам. Сочно.


Go to the top of the page
  Insert nick Quick quote
+Quote Post
post Mar 5 2021, 16:05:19
Post #4

Шесть Литров
******
Group: Металариец
Posts: 579
Releases: 0
From: Нижний Новгород
On Forums: 15 years 23 hours
Thanks: 235 time(s)
Russian Federation


Помимо этого ещё и мелодий, и атмосферы качнули.


Go to the top of the page
  Insert nick Quick quote
+Quote Post
post Mar 5 2021, 16:29:49
Post #5

Пять Литров
*****
Group: Металариец
Posts: 493
Releases: 0
From: Ташкент
On Forums: 13 years 5 months
Thanks: 160 time(s)
Uzbekistan


Да, они мне показались интересными.
За флак отдельное спасибо )))


Go to the top of the page
  Insert nick Quick quote
+Quote Post
post Mar 5 2021, 21:12:17
Post #6

кручу наждак
**************
Group: Металариец
Posts: 5,048
Releases: 104
From: Самара
On Forums: 11 years 2 months
Thanks: 4076 time(s)
Russian Federation


Отлично. Травокуры в очередной раз не подкачали.


Go to the top of the page
  Insert nick Quick quote
+Quote Post
post Mar 5 2021, 23:31:15
Post #7

Crush The Enemies
**************
Group: Металариец
Posts: 4,334
Releases: 0
From: Moscow
On Forums: 11 years 10 months
Thanks: 2788 time(s)
Russian Federation



Swedish Old School Death во всей красе - агрессивнонеиссякаемым напором на протяжении всего альбома,с отличным олдскульным саундом,приправленным сдвоенными вокалами! (IMG:style_emoticons/default/dwarf-1.gif) (IMG:style_emoticons/default/dwarf-1.gif) (IMG:style_emoticons/default/dwarf-1.gif)


Go to the top of the page
  Insert nick Quick quote
+Quote Post
post Mar 7 2021, 10:43:31
Post #8

Семь Литров
*******
Group: Металариец
Posts: 742
Releases: 5
From: Ивантеевка, Московская область
On Forums: 13 years 7 months
Thanks: 332 time(s)
Russian Federation


К сожаление кроме "агрессивно, с неиссякаемым напором" - это всё, что можно сказать об альбоме. На один раз.
Go to the top of the page
  Insert nick Quick quote
+Quote Post
post Mar 7 2021, 14:14:25
Post #9

Три Литра
***
Group: Завсегдатай
Posts: 212
Releases: 0
From: TheМля
On Forums: 14 years 10 months
Thanks: 67 time(s)
Belarus


Жирно и вкусно.


Thanks:
Go to the top of the page
  Insert nick Quick quote
+Quote Post

Reply to this topicStart new topic
2 User(s) are reading this topic (2 Guests and 0 Anonymous Users)
0 Members:

 



- Lo-Fi Version Support form
Copyrights and abuse reports form
Time is now: 25th July 2021 - 05:09:57