Welcome Guest ( Log In | Register )

> Invultation - Unconquerable Death (2021), Black/Death Metal
post Mar 5 2021, 22:11:04
Post #1

Правь статус, ####!616
**************
Group: Металариец
Posts: 6,597
Releases: 5054
From: 55°35’N 38°08’E
On Forums: 13 years 2 weeks
Thanks: 93179 time(s)
Unknown


(IMG:https://metalarea.org/images/audiocovers/2021_Mar/acov_tid348176_thumb.jpg)

*Artist: Invultation
*Album: Unconquerable Death
*Year: 2021
*Genre: Black/Death Metal
*Country: United States (IMG:https://metalarea.org/forum/style_images/flags/United%20States.png)
*Format: mp3@CBR320kbps
*Size: 82MB

Tracklist:
1.Hanged Mass 03:07
2.Unconquerable Death 02:56
3.Insatiable Cruelty 03:36
4.Banners Under The Moon 04:11
5.Cathedral Of Impaled 04:41
6.Necromaniacal Curse 03:06
7.Blood Hex 03:32
8.Breath Of The Lich 04:51
9.All Flesh Falls Into Dust 04:16
10.Outro: Mors Cantum 01:21
******************************
Total playing time: 35:37




Technical info
(IMG:https://metalarea.org/images/spectrogram/2021_Mar/7410c6468a6734384e2832b96d6f779f.png)
Input File: 02 Unconquerable Death.mp3
Channels : 2
Sample Rate : 44100
Precision : 16-bit
Duration : 00:02:56.97 = 7804201 samples = 13272.5 CDDA sectors
File Size : 7.17M
Bit Rate : 324k
Sample Encoding: MPEG audio (layer I, II or III)
Comments :
Title=Unconquerable Death
Artist=Invultation
Album=Unconquerable Death
Tracknumber=2
Year=2021
Genre=Black/Death Metal



Register


Go to the top of the page
  Insert nick Quick quote
+Quote Post
 
Start new topic
Replies (1 - 3)
post Mar 6 2021, 08:16:53
Post #2

Литр
*
Group: Подсевший
Posts: 54
Releases: 0
On Forums: 11 years 1 week
Thanks: 37 time(s)
Unknown


Fuck yes! This is awesome! Thanks.


Thanks:
(1) Occultas,
Go to the top of the page
  Insert nick Quick quote
+Quote Post
post Mar 6 2021, 16:50:05
Post #3

De Mysteriis Dom Sathanas
**************
Group: Металариец
Posts: 4,229
Releases: 63
From: Doom
On Forums: 13 years 1 week
Thanks: 3629 time(s)
Russian Federation


Как для ван-мэн банды, блэк/дэт очень даже ничего, на первый взгляд. Качну, оценю, пожалуй


Thanks:
(1) Occultas,
Go to the top of the page
  Insert nick Quick quote
+Quote Post
post Mar 30 2021, 11:29:42
Post #4

Самый Тихий Час
**************
Group: Металариец
Posts: 6,475
Releases: 6
On Forums: 11 years 8 months
Thanks: 3038 time(s)
Unknown


Archgoat metal.
Go to the top of the page
  Insert nick Quick quote
+Quote Post

Reply to this topicStart new topic
2 User(s) are reading this topic (2 Guests and 0 Anonymous Users)
0 Members:

 



- Lo-Fi Version Support form
Copyrights and abuse reports form
Time is now: 24th July 2021 - 09:50:58