Welcome Guest ( Log In | Register )

> Lughnasadh La Force - Clan De Acero (2021), Power Metal
post Mar 6 2021, 17:48:06
Post #1

Правь статус, ####!111
**************
Group: Металариец
Posts: 27,366
Releases: 19855
From: Г.Харьков
On Forums: 9 years 4 months
Thanks: 399879 time(s)
Unknown


(IMG:https://metalarea.org/images/audiocovers/2021_Mar/acov_tid348206_thumb.jpg)

*Artist: Lughnasadh La Force
*Album: Clan De Acero
*Year: 2021
*Genre: Power Metal
*Country: Argentina (IMG:https://metalarea.org/forum/style_images/flags/Argentina.png)
*Format: mp3@CBR320kbps
*Size: 117MB

Tracklist:
1. Intro
2. Bienvenidos al Ritual
3. Clan de Acero
4. Furia Voraz
5. Templanza
6. Naciente del Fuego
7. Victoria
8. Tierra Hostil
9. Muro de Titanes
******************************
Total playing time: 51:47



Extended info
Emanuel Bonacic Kresic Bass (2009-2011), Drums (2011-present)
See also: ex-Arkada
Matías Timpanara Guitars (2009-present)
See also: ex-Arkada
Gabriela Mónaco Vocals (2009-present)
Julián ''Polaco'' Pereyra Vocals (2009-present)
See also: Tempano
Arial ''El Flaken'' Guitars, Vocals (backing) (2011-present)
Pablo Lemos Keyboards (2011-present)
Alejando ''Ale'' Campetta Bass (2012-present)


Technical info
(IMG:https://metalarea.org/images/spectrogram/2021_Mar/28bf83ed801a47276ed5a7882d1b8f54.png)
Input File: 07 - Victoria.mp3
Channels : 2
Sample Rate : 44100
Precision : 16-bit
Duration : 00:06:17.07 = 16628875 samples = 28280.4 CDDA sectors
File Size : 15.1M
Bit Rate : 320k
Sample Encoding: MPEG audio (layer I, II or III)
Comments :
Title=Victoria
Artist=Lughnasadh La Force
Album=Clan de Acero
Tracknumber=7
Year=2021



Register


Go to the top of the page
  Insert nick Quick quote
+Quote Post
 
Start new topic
Replies (1 - 1)
post Mar 8 2021, 16:30:58
Post #2

тебе 30, а ты все реверсами балуешься
**************
Group: Металариец
Posts: 2,109
Releases: 4
On Forums: 13 years 1 month
Thanks: 769 time(s)
Russian Federation


Испаноязычно, но вполне норм слушается - есть приятные хуковые моменты и неплохой вокал для второго (третьего?) эшелона
Go to the top of the page
  Insert nick Quick quote
+Quote Post

Reply to this topicStart new topic
1 User(s) are reading this topic (1 Guests and 0 Anonymous Users)
0 Members:

 



- Lo-Fi Version Support form
Copyrights and abuse reports form
Time is now: 19th September 2021 - 18:42:26