Welcome Guest ( Log In | Register )

> Concerto Moon - Rain Fire (2020), Neoclassical Power Metal (D)
post Mar 7 2021, 12:47:31
Post #1

hearer & reader
**************
Group: Металариец
Posts: 9,817
Releases: 172
From: Moscow
On Forums: 13 years 10 months
Thanks: 11077 time(s)
Russian Federation


(IMG:http://metalarea.org/images/audiocovers/2021_Mar/acov_tid348237_thumb.jpg)

*Artist: Concerto Moon
*Album: Rain Fire
*Year: 2020
*Genre: Neoclassical Power Metal
*Country: Japan (IMG:http://metalarea.org/forum/style_images/flags/Japan.png)
*Format: mp3@CBR320kbps
*Size: 147MB

Tracklist:
Disc1
1. Long Way to Go 05:11
2. Rain Fire 03:53
3. Run for the Light 04:50
4. Waiting for You 06:38
5. The Night Tells Thousand Lies 05:17
6. Burnt Society 05:15
7. False Confidence 04:15
8. Rise and Fall 04:50
9. The Next Moment of Grief 03:24 instrumental
10. Mirror Design 04:37
Disc2
1. Between Life and Death 05:51
2. Struggle to the Death 04:22
3. Life on the Edge 04:02
******************************
Total playing time: 1:02:25


Preview 2
Preview 3
Preview 4

Extended info

2 CD Deluxe Edition


Technical info
(IMG:http://metalarea.org/images/spectrogram/2021_Mar/e6f916904ac412632d336ecf294dcf34.png)
Input File: 102 - Rain Fire.mp3
Channels : 2
Sample Rate : 44100
Precision : 16-bit
Duration : 00:00:59.93 = 2642825 samples = 4494.6 CDDA sectors
File Size : 2.40M
Bit Rate : 320k
Sample Encoding: MPEG audio (layer I, II or III)
Comments :
Title=Rain Fire
Artist=Concerto Moon [Japan]
Album=Rain Fire (LE)
Tracknumber=102
Year=2020
Genre=Neoclassical Power Metal



Register


Go to the top of the page
  Insert nick Quick quote
+Quote Post
 
Start new topic
Replies (1 - 3)
post Mar 8 2021, 13:09:01
Post #2

hearer & reader
**************
Group: Металариец
Posts: 9,817
Releases: 172
From: Moscow
On Forums: 13 years 10 months
Thanks: 11077 time(s)
Russian Federation


Register


Thanks:
Go to the top of the page
  Insert nick Quick quote
+Quote Post
post Apr 4 2021, 16:05:13
Post #3

Шесть Литров
******
Group: Металариец
Posts: 501
Releases: 0
From: Москва
On Forums: 14 years 9 months
Thanks: 111 time(s)
Russian Federation


Добротный японский пауэр, понравится не только любителям жанра.


Thanks:
Go to the top of the page
  Insert nick Quick quote
+Quote Post
post Jun 6 2021, 17:19:56
Post #4

Правь статус, ####!111
**************
Group: Металариец
Posts: 49,020
Releases: 848
On Forums: 12 years 2 months
Thanks: 44072 time(s)
Russian Federation


Отлично, как и всегда.
Go to the top of the page
  Insert nick Quick quote
+Quote Post

Reply to this topicStart new topic
2 User(s) are reading this topic (2 Guests and 0 Anonymous Users)
0 Members:

 



- Lo-Fi Version Support form
Copyrights and abuse reports form
Time is now: 1st August 2021 - 11:10:06